<?xml version="1.0" standalone="no"?>
<!DOCTYPE svg PUBLIC "-//W3C//DTD SVG 1.1//EN" "http://www.w3.org/Graphics/SVG/1.1/DTD/svg11.dtd">
<svg xmlns="http://www.w3.org/2000/svg">
<metadata>Copyright (C) 2020 by original authors @ fontello.com</metadata>
<defs>
<font id="hosco" horiz-adv-x="1000" >
<font-face font-family="hosco" font-weight="400" font-stretch="normal" units-per-em="1000" ascent="850" descent="-150" />
<missing-glyph horiz-adv-x="1000" />
<glyph glyph-name="ambulance" unicode="&#xe800;" d="M433 309h-44v45a14 14 0 0 1-14 14h-43a14 14 0 0 1-14-14v-45h-47a14 14 0 0 1-13-14v-43a14 14 0 0 1 13-13h47v-47a14 14 0 0 1 14-14h43a14 14 0 0 1 14 14v47h44a14 14 0 0 1 14 13v43a14 14 0 0 1-14 14z m-13-43h-45a14 14 0 0 1-14-14v-46h-15v46a14 14 0 0 1-14 14h-47v16h47a14 14 0 0 1 14 13v45h15v-45a14 14 0 0 1 14-13h45z m463 224c24 12 37 35 37 67v41a33 33 0 0 1-33 33h-115l-16 81a22 22 0 0 1-21 17h-44a22 22 0 0 1-21-17l-16-81h-584a33 33 0 0 1-33-33v-542c0-46 30-83 67-83h38a98 98 0 0 1 29-56 100 100 0 0 1 139 0 98 98 0 0 1 29 56h358a98 98 0 0 1 29-56 100 100 0 0 1 168 57c42 6 69 42 69 94v151a94 94 0 0 1-13 48z m28-185a94 94 0 0 1-42 10h-191v168h168a109 109 0 0 1 11 1z m-18 293v-41c0-31-16-47-47-47h-168v94h209a5 5 0 0 0 6-6z m-197 104h34l14-71h-62z m-626-98h580v-463h-585v457a6 6 0 0 0 5 6z m-5-548v58h585v-114h-311a98 98 0 0 1-26 57c0 0 0 0 0 0 0 0 0 0 0 0a100 100 0 0 1-145 0c0 0 0 0 0 0s0 0 0 0a98 98 0 0 1-27-57h-37c-21 0-39 26-39 56z m175-140a73 73 0 0 0-72 71c0 1 0 1 0 2a72 72 0 0 0 19 49l1 0c0 0 0 1 0 1a72 72 0 0 0 105 0c0-1 0-1 0-1l0 0a72 72 0 0 0 20-49c0-1 0-1 0-2a73 73 0 0 0-73-71z m555 0a73 73 0 0 0-72 71c0 1 0 1 0 2a72 72 0 0 0 145 0c0 0 0-1 0-1a14 14 0 0 1-1-1c0-1 1-1 1-1a73 73 0 0 0-73-70z m141 152c0-28-12-59-42-66a100 100 0 0 1-99 86c-51 0-93-39-99-88h-18v288h191a68 68 0 0 0 57-33c0 0 0-1 0-1a68 68 0 0 0 10-35z m-334 462a33 33 0 0 1-34 33h-431a33 33 0 0 1-33-33v-102a33 33 0 0 1 33-33h431a33 33 0 0 1 34 33z m-28 0v-102a6 6 0 0 0-6-6h-203v114h203a6 6 0 0 0 6-6z m-443 0a6 6 0 0 0 6 6h201v-114h-201a6 6 0 0 0-6 6z m560 267v-39a14 14 0 0 1 28 0v39a14 14 0 0 1-28 0z m96-119h39a14 14 0 0 1 0 28h-39a14 14 0 0 1 0-28z m-186 28a14 14 0 0 1 0-28h39a14 14 0 0 1 0 28z m65 26a14 14 0 0 1 0 19l-28 28a14 14 0 0 1-19-20l28-27a14 14 0 0 1 19 0z m141 29a14 14 0 1 1-20 20l-27-28a14 14 0 0 1 19-19z" horiz-adv-x="1000" />

<glyph glyph-name="apple" unicode="&#xe801;" d="M686 668c-38 0-67-18-95-35-8-5-15-9-23-14 15 51 48 128 92 163a14 14 0 0 1 3 18l-9 18a14 14 0 0 1-18 6c-74-37-137-160-159-222-26 6-49 19-71 32-28 17-58 34-92 34-78 0-142-36-185-103-33-53-53-125-53-197 0-217 119-371 218-461 25-23 48-32 68-32 35 0 63 27 85 49 19 17 36 34 53 34s34-17 53-34c22-22 50-49 86-49 20 0 42 9 67 32 99 90 218 244 218 461 0 68-22 142-58 197-32 47-88 103-180 103z m2-741c-48-44-76-23-116 16-22 21-44 43-72 43s-50-22-72-43c-40-39-67-60-115-16-96 87-209 234-209 441 0 67 17 133 48 182 38 60 93 91 163 91 26 0 51-15 77-30 28-17 57-34 92-38a14 14 0 0 1 15 10c12 38 58 139 115 192-46-58-74-146-80-178a14 14 0 0 1 18-15c19 7 37 18 53 28 26 16 50 31 81 31 80 0 129-50 157-91 33-51 54-119 54-182 0-207-114-354-209-441z" horiz-adv-x="1000" />

<glyph glyph-name="artificial" unicode="&#xe802;" d="M705 262v74h2a22 22 0 0 1 18 10c27 40 118 177 118 234 0 49-15 92-42 124-29 34-71 52-121 52-25 0-58-11-94-22-32-10-65-21-86-21h0c-21 0-54 11-86 21-35 11-69 22-94 22-48 0-89-17-118-49-29-32-45-76-45-127 0-58 91-194 119-234a21 21 0 0 1 17-10h2v-39a21 21 0 0 1 19-21l4-1a53 53 0 0 1 17-70 49 49 0 0 1 12-72 46 46 0 0 1 16-70 42 42 0 0 1 31-62 45 45 0 0 1 44-57l0 0 128 1a32 32 0 0 1 32 34 42 42 0 0 1 30 60 46 46 0 0 1 16 67 49 49 0 0 1 15 65 52 52 0 0 1 31 47 54 54 0 0 1-5 23 21 21 0 0 1 20 21z m-520 318c0 44 13 81 37 108 24 27 58 41 98 41 21 0 54-11 86-21 35-11 69-22 94-22h0c25 0 59 11 94 22 32 10 65 21 86 21 42 0 77-15 101-43 22-26 34-64 34-106 0-36-55-134-111-216l-408 0c-55 81-111 179-111 216z m493-244v-68l-356 34v34z m-73-275l-8 1c-1 0-1 0-2 0l-191 22a42 42 0 0 1-5 0l-17 2a18 18 0 0 0-17 19 19 19 0 0 0 20 18l224-26a19 19 0 0 0 10-32 18 18 0 0 0-14-4z m27 69a21 21 0 0 0-17-5l-244 28a21 21 0 0 0-12 37 21 21 0 0 0 16 5l245-28a21 21 0 0 0 12-37z m-62-154a5 5 0 0 0-4-3l-128-2a18 18 0 0 0-15 27l145-17a5 5 0 0 0 2-5z m30 34a14 14 0 0 0-10-4l-192 22a14 14 0 0 0 0 29l196-23a14 14 0 0 0 7-24z m54 190a25 25 0 0 0-20-7l-274 31a25 25 0 0 0-8 48l293-28-1 0 1 0a27 27 0 0 0 17-26 25 25 0 0 0-8-18z" horiz-adv-x="1000" />

<glyph glyph-name="blood-1" unicode="&#xe803;" d="M511 533a14 14 0 0 1-11 7h0a14 14 0 0 1-11-7c-2-2-39-58-49-79-6-11-12-25-12-43a72 72 0 1 1 144 0c0 18-6 31-12 44-10 20-47 76-49 78z m-11-166a44 44 0 0 0-44 44c0 12 4 22 9 32 5 11 22 38 35 57 13-19 30-46 35-57 6-13 9-21 9-32a44 44 0 0 0-44-44z m457 125l-448 316a14 14 0 0 1-16 0l-450-316a14 14 0 0 1 8-25h98a14 14 0 0 1 5 1v-563a14 14 0 0 1 14-14h660a14 14 0 0 1 14 14v564a14 14 0 0 1 7-2h100a14 14 0 0 1 8 25z m-346-574h-99v274h99z m-127 0h-99v274h99z m155 0v288a14 14 0 0 1-14 13h-254a14 14 0 0 1-14-13v-288h-175v569l318 216 315-215v-570z m214 577l-345 236a14 14 0 0 1-15 0l-348-236h-51l407 285 405-285z m-87-297h-67a22 22 0 0 1-21-22v-121a22 22 0 0 1 21-21h67a22 22 0 0 1 21 21v121a22 22 0 0 1-21 22z m-6-137h-55v109h55z m-465 137h-66a22 22 0 0 1-22-22v-121a22 22 0 0 1 22-21h66a22 22 0 0 1 21 21v121a22 22 0 0 1-21 22z m-6-137h-55v109h55z m211 561a183 183 0 1 1 183-183 183 183 0 0 1-183 183z m0-338a155 155 0 1 0 155 155 156 156 0 0 0-155-155z" horiz-adv-x="1000" />

<glyph glyph-name="blood-2" unicode="&#xe804;" d="M362 615a14 14 0 0 1-11 7h0a14 14 0 0 1-11-7c-2-3-49-72-61-97-7-15-14-32-14-53a86 86 0 1 1 172 0c0 21-6 36-14 53-12 25-59 94-61 97z m-11-209a59 59 0 0 0-59 59c0 15 6 28 12 41 7 16 32 55 47 77 15-22 40-61 47-77 8-17 12-27 12-41a59 59 0 0 0-59-59z m581-357c-15 15-38 17-58 5l-216 217c10 20 8 44-8 60l-23 23c62 118 44 267-55 366h0c-122 122-319 122-441 0a311 311 0 0 1 363-497l24-24c8-8 19-12 32-12a61 61 0 0 1 7 0 67 67 0 0 1 22 6l217-217c-11-21-10-45 4-59l21-22a22 22 0 0 1 31 0l102 102a22 22 0 0 1 0 30z m-118-52l-213 213 39 40 213-213z m-663 302a284 284 0 0 0 401 402c111-111 111-291 0-402s-291-111-401 0z m403-85c-7-1-14 1-17 4l-19 19a312 312 0 0 1 94 93l18-18c9-8 10-24-2-36l-51-51a39 39 0 0 0-23-11z m283-296l-18 18c-7 7-2 25 10 37l51 51c6 7 14 11 21 11a17 17 0 0 0 12-5l17-18z m-321 747h0a233 233 0 1 1 0-331 234 234 0 0 1 0 331z m-19-311a206 206 0 1 0 0 291h0a206 206 0 0 0 0-291z" horiz-adv-x="1000" />

<glyph glyph-name="blood-3" unicode="&#xe805;" d="M125 264v-36c0-21 14-39 33-47v-39a42 42 0 0 1 30-41v-105a14 14 0 0 1 1-5l0 0c1-57 48-102 105-102a105 105 0 0 1 105 105l0 159a77 77 0 1 0 154 1l0-162a105 105 0 0 1 105-105c57 0 104 47 104 105v221h8a21 21 0 0 1 21 22v50c57 44 144 129 144 221 0 57-35 118-101 118a101 101 0 0 1-87-50 101 101 0 0 1-87 50c-70 0-101-59-101-118 0-91 86-174 140-218v-53a22 22 0 0 1 22-22h13v-221a77 77 0 1 0-153 0l0 162a105 105 0 1 1-209-1l-1-159a78 78 0 0 0-77-78c-43 0-78 35-78 77a14 14 0 0 1-1 5l0 0v103a42 42 0 0 1 29 41v37a51 51 0 0 1 33 49v37a88 88 0 0 1 55 83v340a21 21 0 0 1-21 21h-96v90a14 14 0 0 1-27 0v-90h-102a22 22 0 0 1-21-21v-336a95 95 0 0 1 60-88z m510 126c-32 41-49 80-49 116 0 24 7 47 18 63 13 18 31 28 56 28a74 74 0 0 0 74-74 14 14 0 0 1 27 0 74 74 0 0 0 73 74c48 0 74-47 74-91 0-77-78-153-123-191a42 42 0 0 1-6 7 47 47 0 0 1-71-6c-22 19-50 44-73 74z m92-101c0 2 0 3 0 5a19 19 0 0 0 19 14 20 20 0 0 0 14-6 16 16 0 0 0 4-9 16 16 0 0 1 0-4v-48h-37z m-526-163a16 16 0 0 0-15 16v34h31v-34a16 16 0 0 0-16-16z m49 102c0-13-10-24-22-24h-49c-13 0-27 12-27 24v30c2 0 5 0 7 0h83a75 75 0 0 1 8 1z m55 454v-184h-213v184z m-213-211h213v-123a63 63 0 0 0-63-62h-83a67 67 0 0 0-67 66z" horiz-adv-x="1000" />

<glyph glyph-name="blood-4" unicode="&#xe806;" d="M648 242a98 98 0 0 1 98 97c0 25-7 42-16 61-14 29-68 109-70 112a13 13 0 0 1-12 6h0a13 13 0 0 1-11-6c-2-3-56-83-70-113-8-16-16-36-16-60a98 98 0 0 1 97-97z m-57 146c10 20 41 67 57 92 17-25 48-72 58-92 8-19 13-32 13-49a71 71 0 1 0-141 0c0 19 7 34 13 49z m-242 421h-186c-18 0-34-15-34-33v-826a14 14 0 0 1 27 0v826c0 3 4 6 7 6h179v-28c0-11 10-21 22-21h54v-76h-114c-12 0-23-10-23-22v-380c0-29 10-58 28-80 9-10 21-19 31-25v-50c0-26 21-49 47-52v-43a48 48 0 0 1 31-45v-55a14 14 0 0 1 27 0v54c20 6 34 24 34 46v43a52 52 0 0 1 44 52v48a101 101 0 0 1 36 28 222 222 0 0 1 89-18c122 0 222 99 222 221s-100 222-222 222a231 231 0 0 1-64-9v43c0 12-9 22-20 22h-119v76h70a14 14 0 0 1 0 27h-146v28c0 11-8 21-20 21z m84-824c-11 0-19 8-19 20v42h37v-42c0-12-8-20-18-20z m63 115c0-14-10-25-23-25h-78c-15 0-28 11-28 25v41a112 112 0 0 1 18-2h99a78 78 0 0 1 12 1z m-12 66h-99c-37 0-76 34-76 89v132h118c0-2 0-5 0-8a222 222 0 0 1 107-190c-14-15-31-23-50-23z m359 213a194 194 0 1 0-195 195 195 195 0 0 0 195-195z m-286 203a222 222 0 0 1-127-167h-121v214h248z" horiz-adv-x="1000" />

<glyph glyph-name="blood-5" unicode="&#xe807;" d="M777 470a106 106 0 0 1-93-54 107 107 0 0 1-14 20c0 0-1 1-1 1-75 128-230 357-231 360a14 14 0 0 1-12 6h0a14 14 0 0 1-11-6c-8-12-197-291-245-393-26-55-53-120-53-197 0-170 139-309 309-309a310 310 0 0 1 291 204 667 667 0 0 1 70 60c64 64 96 126 96 185 0 60-37 123-106 123z m-351-545c-155 0-282 127-282 282 0 72 25 131 51 185 40 86 189 309 231 372 33-48 128-190 193-297a106 106 0 0 1-27 4c-74 0-107-63-107-124 0-59 33-121 97-185a641 641 0 0 1 95-79 14 14 0 0 1 2-1 282 282 0 0 0-253-157z m258 186c-34 24-171 127-171 236 0 25 6 49 18 66 14 20 34 30 61 30a79 79 0 0 0 79-79 14 14 0 0 1 27 0 79 79 0 0 0 79 79c30 0 48-16 58-30 13-18 21-42 21-66 0-108-138-212-172-236z" horiz-adv-x="1000" />

<glyph glyph-name="blood-6" unicode="&#xe808;" d="M500-102c171 0 309 138 309 309 0 78-24 135-53 197-48 102-237 381-245 393a14 14 0 0 1-11 6h0a14 14 0 0 1-11-6c-8-12-197-292-245-393-26-55-53-120-53-197 0-170 138-309 309-309z m-231 494c40 86 189 309 231 372 42-63 191-286 231-372 29-60 51-112 51-185 0-155-126-282-282-282s-282 127-282 282c0 72 25 131 51 185z m141-186h59v-59a22 22 0 0 1 21-22h47a22 22 0 0 1 22 22v59h56a22 22 0 0 1 22 21v47a22 22 0 0 1-22 21h-56v57a22 22 0 0 1-22 21h-47a22 22 0 0 1-21-21v-57h-59a22 22 0 0 1-21-21v-47a22 22 0 0 1 21-21z m6 62h59a22 22 0 0 1 21 22v56h35v-56a22 22 0 0 1 22-22h56v-35h-56a22 22 0 0 1-22-22v-58h-35v58a22 22 0 0 1-21 22h-59z" horiz-adv-x="1000" />

<glyph glyph-name="blood" unicode="&#xe809;" d="M500 733a219 219 0 1 1 219-219 219 219 0 0 1-219 219z m0-410a191 191 0 1 0 191 191 192 192 0 0 0-191-191z m0 490c-171 0-309-139-309-309a356 356 0 0 1 16-106c10-33 24-63 37-91 39-83 173-285 228-368a33 33 0 0 1 28-15h0a33 33 0 0 1 28 15c55 83 189 284 228 368 29 61 53 119 53 197 0 170-138 309-309 309z m231-495c-39-84-183-300-226-365a6 6 0 0 0-10 0c-43 65-187 282-226 365-26 55-51 114-51 186 0 155 127 282 282 282s282-127 282-282c0-73-22-125-51-186z m-220 311a14 14 0 0 1-11 6h0a14 14 0 0 1-12-6c-2-3-48-72-60-97-7-15-15-32-15-53a86 86 0 0 1 173 0c0 21-6 36-14 53-12 25-59 94-61 97z m-11-209a59 59 0 0 0-59 59c0 15 5 29 11 41 8 16 33 55 48 77 15-22 39-60 47-77 8-16 12-27 12-41a59 59 0 0 0-59-59z" horiz-adv-x="1000" />

<glyph glyph-name="calendar-1" unicode="&#xe80a;" d="M871 696h-31v45a53 53 0 0 1-53 52h-10a53 53 0 0 1-52-52v-45h-452v45a53 53 0 0 1-52 52h-10a53 53 0 0 1-53-52v-45h-29a92 92 0 0 1-92-92v-606a92 92 0 0 1 92-91h742a92 92 0 0 1 92 91v606a92 92 0 0 1-92 92z m-119 45a25 25 0 0 0 25 25h10a25 25 0 0 0 26-25v-88a25 25 0 0 0-26-26h-10a25 25 0 0 0-25 26z m-566 0a25 25 0 0 0 25 25h10a25 25 0 0 0 25-25v-88a25 25 0 0 0-25-26h-10a25 25 0 0 0-25 26z m-121-137a65 65 0 0 0 64 64h29v-15a53 53 0 0 1 53-53h10a53 53 0 0 1 52 53v15h452v-15a53 53 0 0 1 52-53h10a53 53 0 0 1 53 53v15h31a65 65 0 0 0 65-64v-64h-871z m806-670h-742a65 65 0 0 0-64 64v514h871v-514a65 65 0 0 0-65-64z m-756 404h100a14 14 0 0 1 14 14v102a14 14 0 0 1-14 13h-100a14 14 0 0 1-13-13v-102a14 14 0 0 1 13-14z m14 102h72v-74h-72z m152-102h100a14 14 0 0 1 14 14v102a14 14 0 0 1-14 13h-100a14 14 0 0 1-13-13v-102a14 14 0 0 1 13-14z m14 102h72v-74h-72z m154-102h100a14 14 0 0 1 14 14v102a14 14 0 0 1-14 13h-100a14 14 0 0 1-13-13v-102a14 14 0 0 1 13-14z m14 102h72v-74h-72z m152-102h100a14 14 0 0 1 14 14v102a14 14 0 0 1-14 13h-100a14 14 0 0 1-13-13v-102a14 14 0 0 1 13-14z m14 102h72v-74h-72z m154-102h100a14 14 0 0 1 14 14v102a14 14 0 0 1-14 13h-100a14 14 0 0 1-13-13v-102a14 14 0 0 1 13-14z m14 102h72v-74h-72z m-580-158h-100a14 14 0 0 1-13-14v-102a14 14 0 0 1 13-13h100a14 14 0 0 1 14 13v102a14 14 0 0 1-14 14z m-14-102h-72v74h72z m180 102h-100a14 14 0 0 1-13-14v-102a14 14 0 0 1 13-13h100a14 14 0 0 1 14 13v102a14 14 0 0 1-14 14z m-14-102h-72v74h72z m182 102h-100a14 14 0 0 1-13-14v-102a14 14 0 0 1 13-13h100a14 14 0 0 1 14 13v102a14 14 0 0 1-14 14z m-14-102h-72v74h72z m-320-72h-100a14 14 0 0 1-13-14v-101a14 14 0 0 1 13-14h100a14 14 0 0 1 14 14v101a14 14 0 0 1-14 14z m-14-102h-72v75h72z m180 102h-100a14 14 0 0 1-13-14v-101a14 14 0 0 1 13-14h100a14 14 0 0 1 14 14v101a14 14 0 0 1-14 14z m-14-102h-72v75h72z m182 102h-100a14 14 0 0 1-13-14v-101a14 14 0 0 1 13-14h100a14 14 0 0 1 14 14v101a14 14 0 0 1-14 14z m-14-102h-72v75h72z m180 276h-100a14 14 0 0 1-13-14v-102a14 14 0 0 1 13-13h100a14 14 0 0 1 14 13v102a14 14 0 0 1-14 14z m-14-102h-72v74h72z m182 102h-100a14 14 0 0 1-13-14v-102a14 14 0 0 1 13-13h100a14 14 0 0 1 13 13v102a14 14 0 0 1-13 14z m-14-102h-72v74h72z" horiz-adv-x="1000" />

<glyph glyph-name="calendar" unicode="&#xe80b;" d="M211 477a22 22 0 0 1-21 21h-75a22 22 0 0 1-21-21v-74a22 22 0 0 1 21-22h75a22 22 0 0 1 21 22z m-90-6h63v-62h-63z m238 6a22 22 0 0 1-21 21h-74a22 22 0 0 1-22-21v-74a22 22 0 0 1 22-22h74a22 22 0 0 1 21 22z m-89-6h62v-62h-62z m240 6a22 22 0 0 1-22 21h-74a22 22 0 0 1-21-21v-74a22 22 0 0 1 21-22h74a22 22 0 0 1 22 22z m-90-6h62v-62h-62z m238 6a22 22 0 0 1-21 21h-74a22 22 0 0 1-22-21v-74a22 22 0 0 1 22-22h74a22 22 0 0 1 21 22z m-90-6h63v-62h-63z m241 6a22 22 0 0 1-22 21h-74a22 22 0 0 1-22-21v-74a22 22 0 0 1 22-22h74a22 22 0 0 1 22 22z m-90-6h62v-62h-62z m-506-160a22 22 0 0 1-22 21h-74a22 22 0 0 1-21-21v-74a22 22 0 0 1 21-22h74a22 22 0 0 1 22 22z m-27-68h-63v62h63z m175 68a22 22 0 0 1-21 21h-74a22 22 0 0 1-22-21v-74a22 22 0 0 1 22-22h74a22 22 0 0 1 21 22z m-27-68h-62v62h62z m178 68a22 22 0 0 1-22 21h-74a22 22 0 0 1-21-21v-74a22 22 0 0 1 21-22h74a22 22 0 0 1 22 22z m-28-68h-62v62h62z m-271-86a22 22 0 0 1-22 21h-74a22 22 0 0 1-21-21v-76a22 22 0 0 1 21-22h74a22 22 0 0 1 22 22z m-27-71h-63v65h63z m175 71a22 22 0 0 1-21 21h-74a22 22 0 0 1-22-21v-76a22 22 0 0 1 22-22h74a22 22 0 0 1 21 22z m-27-71h-62v65h62z m533 211v323c0 47-35 84-80 84h-29v39a49 49 0 0 1-48 48h-9a49 49 0 0 1-49-48v-39h-402v39a49 49 0 0 1-48 48h-8a49 49 0 0 1-49-48v-39h-23c-47 0-87-39-87-84v-542c0-45 40-84 87-84h462a208 208 0 0 1 170-85 211 211 0 0 1 113 388z m-136 367a21 21 0 0 0-22-21h-8a21 21 0 0 0-21 21v79a21 21 0 0 0 21 21h8a21 21 0 0 0 22-21z m-508 0a21 21 0 0 0-22-21h-8a21 21 0 0 0-21 21v79a21 21 0 0 0 21 21h8a21 21 0 0 0 22-21z m-160-44c0 30 28 56 59 56h23v-12a49 49 0 0 1 49-48h8a48 48 0 0 1 48 48v12h402v-12a49 49 0 0 1 49-48h9a48 48 0 0 1 48 48v12h29c30 0 53-25 53-56v-55h-777z m59-598c-31 0-59 26-59 56v460h777v-226a206 206 0 0 1-87 19c-33 0-63-8-93-22v2a22 22 0 0 1-21 21h-74a22 22 0 0 1-22-21v-74a22 22 0 0 1 22-22h0a212 212 0 0 1-23-95 210 210 0 0 1 25-98z m460 221h-12v62h63v-12a222 222 0 0 1-51-50z m172-307a184 184 0 1 0 183 184 184 184 0 0 0-183-184z m-2 347a14 14 0 0 1-14-13v-142l-88-55a14 14 0 0 1 15-23l94 58a14 14 0 0 1 7 12v150a14 14 0 0 1-14 13z" horiz-adv-x="1000" />

<glyph glyph-name="call-1" unicode="&#xe80c;" d="M801 712a76 76 0 0 1-62-33 76 76 0 0 1-62 33c-26 0-46-11-60-30-11-16-16-36-16-58 0-95 125-177 130-181a14 14 0 0 1 15 0c6 4 131 87 131 181 0 43-26 88-76 88z m-62-241a425 425 0 0 0-53 45c-26 26-58 67-58 108 0 58 40 61 49 61a49 49 0 0 0 48-49 14 14 0 0 1 28 0 49 49 0 0 0 48 48c36 0 49-37 49-60 0-68-85-134-111-153z m158 277a224 224 0 0 1-161 65c-124-2-224-104-223-228a226 226 0 0 1 191-221l-30-115a18 18 0 0 1 29-18c33 31 145 133 183 177 53 61 79 119 79 179a224 224 0 0 1-68 161z m-31-322c-31-35-111-110-157-152l26 98a14 14 0 0 1-12 17 199 199 0 0 0-183 196c-1 109 87 199 196 201 1 0 2 0 3 0a199 199 0 0 0 198-199c0-53-22-105-71-161z m-284-308c-16 28-52 38-80 22l-48-28-1 0c0 0-18-11-48-3-34 8-86 40-146 145-31 53-66 130-52 189 8 34 28 46 29 46l0 0 48 28a58 58 0 0 1 27 36 59 59 0 0 1-6 45l-54 95a59 59 0 0 1-80 21l-86-49c-11-7-23-23-32-45-11-27-17-59-18-95-2-123 57-252 107-339s133-202 241-263c40-23 72-31 91-34a154 154 0 0 1 24-2c13 0 25 2 33 7l85 49a59 59 0 0 1 21 80z m20-151l-85-50c-9-5-55-8-121 29-103 58-182 170-230 254-48 84-106 208-103 324 1 73 25 111 36 117l85 50a31 31 0 0 0 16 4 32 32 0 0 0 8-1 31 31 0 0 0 19-15l55-95a32 32 0 0 0 3-24 31 31 0 0 0-14-19l-49-28c-10-6-31-25-40-58-15-56 3-128 53-215 52-90 107-143 163-158 33-8 59 0 70 6l48 28a32 32 0 0 0 43-12l55-94a32 32 0 0 0-12-43z" horiz-adv-x="1000" />

<glyph glyph-name="call-2" unicode="&#xe80d;" d="M671 229a18 18 0 0 1 21 2c33 31 145 133 183 177h0c53 61 79 119 79 179a226 226 0 0 1-229 226c-124-2-224-104-223-228a226 226 0 0 1 191-221l-30-115a18 18 0 0 1 8-20z m-88 223a198 198 0 0 0-54 133c-1 109 87 199 196 200 1 0 2 0 3 0a198 198 0 0 0 198-198c0-54-23-105-72-161-30-35-110-110-156-152l26 98a14 14 0 0 1-12 17 198 198 0 0 0-129 63z m189 9v73h72a18 18 0 0 1 17 17v63a18 18 0 0 1-17 17h-72v75a18 18 0 0 1-18 17h-63a18 18 0 0 1-17-17v-75h-72a18 18 0 0 1-18-17v-63a18 18 0 0 1 18-17h72v-73a18 18 0 0 1 17-17h63a18 18 0 0 1 18 17z m-28 82v-72h-43v72a18 18 0 0 1-17 18h-73v43h73a18 18 0 0 1 17 18v74h43v-74a18 18 0 0 1 18-18h72v-43h-72a18 18 0 0 1-18-18z m-350-620c40-22 72-31 91-34a153 153 0 0 1 24-2c13 0 25 3 33 7l85 49a59 59 0 0 1 21 80l-55 95c-16 28-52 38-80 22l-48-28-1 0c0 0-18-11-48-3-34 8-86 40-146 145-31 53-65 130-52 189 8 34 28 46 29 46l0 0 48 28c28 16 38 53 22 81l-55 95a59 59 0 0 1-80 21l-85-49c-12-7-24-23-33-46-11-26-17-59-17-94-3-123 56-252 106-339s133-202 241-263z m-320 601c1 73 25 111 36 117l85 49a31 31 0 0 0 16 5 32 32 0 0 0 8-2 31 31 0 0 0 19-14l55-95a32 32 0 0 0-11-43l-49-28c-10-6-31-25-40-59-15-55 3-127 53-214 52-90 107-143 163-157 33-9 59-1 70 6l48 27a32 32 0 0 0 43-12l55-94a32 32 0 0 0-12-43l-85-49c-9-6-54-8-120 29-103 58-183 169-231 253-48 84-105 208-103 324z" horiz-adv-x="1000" />

<glyph glyph-name="call-3" unicode="&#xe80e;" d="M455-74c44-24 80-33 101-37a170 170 0 0 1 26-2c15 0 28 3 36 7l95 55a64 64 0 0 1 23 87l-61 106a64 64 0 0 1-39 29 63 63 0 0 1-48-5l-54-32c0 0 0 0 0 0 0 0-21-12-56-3-37 9-96 45-163 162-63 109-66 175-57 212 9 38 31 51 32 52l0 0 54 31a63 63 0 0 1 29 39 64 64 0 0 1-6 49l-61 105a64 64 0 0 1-87 24l-95-55c-13-8-26-26-35-50-9-20-19-55-20-105-2-136 63-280 119-376 56-96 147-225 267-293z m-358 669c1 81 29 124 41 131l95 55a36 36 0 0 0 17 5 37 37 0 0 0 10-2 36 36 0 0 0 22-17l61-105a37 37 0 0 0 4-28 36 36 0 0 0-17-22l-54-31c-2-2-31-19-44-65-16-60 3-140 59-237 58-100 119-159 181-175 44-11 72 5 76 7l54 31a36 36 0 0 0 27 3 37 37 0 0 0 23-17l60-105a37 37 0 0 0-13-50l-95-55c-10-6-61-9-135 32-115 65-203 190-257 283-54 93-118 232-115 362z m629-404a68 68 0 0 0 59-102 14 14 0 1 1 24-14 97 97 0 0 1-1 96c-16 29-48 46-82 48h0a14 14 0 0 1 0-28z m92-171a14 14 0 0 1 19 1 151 151 0 0 1-144 249 14 14 0 1 1 6-27 123 123 0 0 0 118-203 14 14 0 0 1 1-20z m-146 272a178 178 0 0 0 174-300 14 14 0 1 1 18-21 205 205 0 0 1-200 347 14 14 0 1 1 8-26z" horiz-adv-x="1000" />

<glyph glyph-name="cancer-ribbon" unicode="&#xe80f;" d="M339-106a14 14 0 0 1 11-6c0 0 1 0 1 0a14 14 0 0 1 11 8l138 255 138-255a14 14 0 0 1 11-8c1 0 1 0 1 0a14 14 0 0 1 11 6l79 116a14 14 0 0 1 0 15c-1 1-78 134-158 277l96 177c0 0 0 0 0 1 43 86 28 161 8 208-22 51-54 81-55 82a14 14 0 0 1-5 3c-17 11-65 39-125 39-60 0-108-27-126-39a14 14 0 0 1-6-3c-1-1-33-31-55-82-20-47-35-122 8-208 0-1 0-1 0-1l96-177c-80-143-157-276-158-277a14 14 0 0 1 1-15z m373 125l-61-91-135 251 51 95c66-118 128-227 145-255z m-212 432c-38 71-66 125-82 160a293 293 0 0 0-21 69c17 11 50 32 105 32 54 0 85-19 101-30a294 294 0 0 0-21-71c-16-35-44-89-82-160z m108 301a343 343 0 0 0-1-40c-20 12-54 28-105 28-52 0-88-17-109-30a345 345 0 0 0-1 42c17 11 59 32 109 32 50 0 90-21 107-32z m-269-76a250 250 0 0 0 26 46c2-31 8-77 28-122 18-39 48-98 91-178-15-28-32-59-50-92l-88 162c-30 62-33 124-7 184z m107-381c24 44 46 84 66 121 45 82 77 144 95 184 20 45 27 91 28 122a250 250 0 0 0 26-46c26-60 23-122-7-184l-305-564-61 91c18 30 87 150 158 276z" horiz-adv-x="1000" />

<glyph glyph-name="call" unicode="&#xe810;" d="M696 743c-2-4-63-93-78-126-9-18-18-40-18-66a108 108 0 0 1 215 0c0 26-8 46-18 66-15 33-76 122-78 126a13 13 0 0 1-11 5h0a13 13 0 0 1-12-5z m77-137c10-22 15-36 15-55a81 81 0 0 0-161 0c0 20 8 38 15 55 11 22 47 77 66 105 18-28 54-82 65-105z m-289-11a218 218 0 0 1 184-216l-32-122a14 14 0 0 1 22-14c6 5 143 129 186 179 51 59 76 115 76 173a218 218 0 0 1-436 0z m409 0c0-52-22-101-69-155h0c-29-34-105-105-150-146l24 94a14 14 0 0 1-12 17 191 191 0 1 0 207 190z m-619-127l0 0 47 26c26 16 36 52 20 79l-52 91a57 57 0 0 1-78 21l-82-47c-12-7-23-23-32-44-10-26-16-57-17-92-2-118 55-243 103-326s128-196 232-255c39-21 70-29 89-32a148 148 0 0 1 22-2c14 0 25 2 32 7l82 47a57 57 0 0 1 21 78l-53 91c-15 27-51 37-78 22l-46-27c-1 0-1 0-1 0 0-1-17-10-46-3-32 8-83 39-141 139-30 52-62 125-49 182 7 32 26 44 27 45z m-1-241c50-87 103-138 157-152 32-8 57 0 67 6l47 27a30 30 0 0 0 41-11l52-92a30 30 0 0 0-10-40l-82-48c-9-5-53-7-116 28-99 56-176 164-222 244-47 81-102 200-99 313 1 71 26 107 34 112l82 47a29 29 0 0 0 15 4 31 31 0 0 0 8-1 30 30 0 0 0 18-14l53-91a30 30 0 0 0-11-41l-46-27c-11-6-31-24-40-56-14-54 3-123 52-208z" horiz-adv-x="1000" />

<glyph glyph-name="dental-care-1" unicode="&#xe811;" d="M390 161a38 38 0 0 1 27-12c23 0 35 32 57 95 7 21 19 55 27 66 9-12 24-52 32-75 21-58 31-84 51-84 47 0 55 89 60 172 0 5 0 9 0 13 1 10 9 30 17 48 11 25 22 51 22 70 0 58-37 97-90 97-14 0-32-5-51-11-16-5-32-10-42-10h0c-10 0-26 5-42 10-19 6-36 11-50 11-53 0-90-40-90-97 0-18 10-41 20-65 9-19 18-41 18-53 0-32 0-140 34-175z m-45 293c0 42 25 70 63 70 9 0 26-5 42-10 18-6 36-12 50-12h0c14 0 32 6 50 12 16 5 33 10 43 10 30 0 62-18 62-70 0-14-10-38-19-59-9-22-18-42-19-57 0-4-1-9-1-13-1-26-3-65-9-98-6-31-15-45-21-48-7 9-19 42-27 65-22 62-36 96-59 96-20 0-31-28-52-87-9-26-24-69-32-77a12 12 0 0 0-6 4c-20 20-28 95-26 156 0 18-10 40-21 64-8 19-18 41-18 54z m-140-383a14 14 0 1 1 20 19 377 377 0 0 0 410 614l-41-88a14 14 0 0 1 17-18l138 50a14 14 0 0 1 9 17l-51 139a14 14 0 0 1-25 1l-36-77a404 404 0 0 1-441-657z m488 693l34-95-94-34z m-451-729l51-139a14 14 0 0 1 12-9c0 0 0 0 0 0a14 14 0 0 1 13 8l36 77a404 404 0 0 1 441 657 14 14 0 1 1-20-19 377 377 0 0 0-410-614l41 88a14 14 0 0 1-17 18l-138-50a14 14 0 0 1-9-17z m125 30l-60-129-34 95z" horiz-adv-x="1000" />

<glyph glyph-name="dental-care" unicode="&#xe812;" d="M500 733a219 219 0 1 1 219-219 219 219 0 0 1-219 219z m0-410a191 191 0 1 0 191 191 192 192 0 0 0-191-191z m0 490c-171 0-309-139-309-309a356 356 0 0 1 16-106c10-33 24-63 37-91 39-83 173-285 228-368a33 33 0 0 1 28-15h0a33 33 0 0 1 28 15c55 83 189 284 228 368 29 61 53 119 53 197 0 170-138 309-309 309z m231-495c-39-84-183-300-226-365a6 6 0 0 0-10 0c-43 65-187 282-226 365-26 55-51 114-51 186 0 155 127 282 282 282s282-127 282-282c0-73-22-125-51-186z m-178 312c-8 0-18-3-29-7-8-2-17-5-21-5h0c-5 0-14 3-21 5-11 4-21 7-30 7-33 0-55-24-55-59 0-12 5-25 12-38 4-9 9-21 9-26-1-24 0-81 20-101a27 27 0 0 1 19-8c18 0 26 22 37 56 3 8 6 17 9 25 4-9 9-21 12-30 12-32 18-50 34-50 33 0 36 60 38 100 0 3 1 5 1 7 0 5 5 16 8 24 6 14 13 29 13 41 0 35-23 59-56 59z m18-89c-5-13-10-24-11-33 0-2 0-5 0-8a458 458 0 0 0-4-46 104 104 0 0 0-5-22c-4 8-7 18-10 26-12 34-21 57-38 57-16 0-23-20-34-52-4-10-9-26-14-34-5 10-11 38-10 77 0 11-5 24-11 38-5 9-10 21-10 27 0 20 11 32 28 32 5 0 14-3 21-6 11-3 21-7 30-7h0c8 0 18 4 29 7 8 3 17 6 21 6 26 0 28-25 28-32 0-6-5-19-10-30z" horiz-adv-x="1000" />

<glyph glyph-name="doctor-1" unicode="&#xe813;" d="M152-113h303c1 0 3-1 5-1a14 14 0 0 1 5 1 1 1 0 0 0 0 0h69c0 0 1-1 2-1a14 14 0 0 1 5-1c2 0 5 2 7 2h300c26 0 50 25 50 53a15 15 0 0 1-1 3c0 1-20 82-36 149-10 41-40 79-84 109-15 61-30 152-31 222l0 9c0 89-1 189-43 270-37 73-123 119-209 112a38 38 0 0 1-35-43 11 11 0 0 0-14-12c-42 11-88-3-124-36-27-26-46-61-57-105-12-50-12-110 0-177 11-60-1-140-33-233-48-32-81-72-92-117-14-58-36-147-36-147a15 15 0 0 1-1-4c0-28 24-53 50-53z m218 289c0 0-22 17-33 36a19 19 0 0 0-2 15c2 7 9 14 17 18 4 2 20 8 39 14l13-90a14 14 0 0 1 1-5l1-7c0 0 0 0 0-1l30-191-94 151c0 0 0 1 0 1-6 8-8 16-7 21a5 5 0 0 0 1 3c7 4 22 9 30 11a14 14 0 0 1 4 24z m-13 366c-3 20-7 79 16 106 8 10 20 15 35 15 10 0 16-9 27-29 15-27 35-63 89-63 22 0 45 7 66 14 17 6 41 13 47 9 9-8 9-36 6-52a14 14 0 0 1 23-12c2 2 8 7 13 4 5-2 9-10 6-22-9-39-33-64-49-64h-1a14 14 0 0 1-14-14c0-11-7-69-53-98-18-12-41-18-68-18-27 0-50 6-68 17-48 30-53 92-53 99a14 14 0 0 1-14 13l0 0c-17 0-41 26-50 65-3 12 1 21 6 23 5 3 10-2 13-5a14 14 0 0 1 23 12z m271-379a14 14 0 0 1 10-11c7-2 23-7 29-11a4 4 0 0 0 1-2c1-4 0-12-6-21 0 0 0 0 0-1l-98-155 31 202 14 97c21-7 39-14 42-16 9-4 15-11 17-18a19 19 0 0 0-1-14c-11-20-34-37-34-37a14 14 0 0 1-5-13z m-198 13l-14 98 15 31c20-9 43-14 69-14 26 0 49 5 69 14l15-28-15-100c-20-11-63-23-71-23-8 0-48 12-68 22z m5-32c24-10 54-17 63-17 10 0 41 7 66 17l-35-230h-58z m400-58c14-62 32-135 35-147 0-13-11-25-22-25h-281l118 188c9 14 13 29 10 42a31 31 0 0 1-12 20 78 78 0 0 1-15 7 135 135 0 0 1 23 28 48 48 0 0 1 5 14c1-1 3-1 5-2 19-41 32-93 34-139a54 54 0 1 1 28 0 434 434 0 0 1-25 121c52-29 87-67 97-107z m-87-40a27 27 0 0 0 27-32h0a27 27 0 1 0-27 32z m-457 400c-28 157 19 228 49 257 28 26 66 38 99 30a38 38 0 0 1 47 41 11 11 0 0 0 10 13c74 6 151-35 183-97 39-75 39-172 40-258l0-10c0-62 12-141 25-201-8 5-18 9-27 13 0 0 0 0 0 0q-13 5-26 10a63 63 0 0 1-27 26c-4 2-32 12-56 20l-15 30c40 31 51 79 55 102 27 7 53 40 63 83 6 23-2 44-19 54a34 34 0 0 1-20 4q0 1 0 3c0 23-6 40-19 49-17 14-42 6-72-4-19-6-40-13-57-13-38 0-51 24-65 49-11 20-24 44-51 44-24 0-42-9-56-25-24-28-26-74-24-103a33 33 0 0 1-19-3c-18-9-26-31-20-55 10-43 35-76 63-83 3-23 15-72 55-103l-14-31c-32-10-50-16-53-18a64 64 0 0 1-25-22 401 401 0 0 1-49-20c27 85 35 160 25 218z m-125-361c9 38 38 73 82 101a14 14 0 0 1 3 2q8 5 16 9a482 482 0 0 1-20-61l-13 1c-17 1-32-11-37-30-5-23-27-96-28-97a14 14 0 0 1 0-3 35 35 0 0 1 32-37 14 14 0 0 1 2 27 7 7 0 0 0-7 7c4 12 23 75 28 97 0 1 2 9 8 9l47-4c6 0 7-9 7-10 3-24 12-87 14-99a7 7 0 0 0-8-6 14 14 0 1 1-2-27q2 0 3 0a35 35 0 0 1 35 32 14 14 0 0 1-1 3c0 1-11 75-13 100-2 19-15 33-33 35l-6 0c7 29 19 60 30 81 1 0 2 1 3 1a47 47 0 0 1 5-17 137 137 0 0 1 23-29 82 82 0 0 1-15-7 30 30 0 0 1-13-20c-2-13 2-29 11-42l116-187h-283c-11 0-21 12-22 25 3 12 22 92 36 146z" horiz-adv-x="1000" />

<glyph glyph-name="doctor" unicode="&#xe814;" d="M187-113h277c1 0 1 0 2 0s2 0 2 0h346c28 0 57 30 57 58v151c0 55-49 107-134 144a14 14 0 0 1-6 3q-13 5-27 10c-5 11-15 21-28 28-4 2-33 12-58 21l-16 31c42 32 53 81 57 105 28 7 55 41 66 86 5 23-3 45-20 54a35 35 0 0 1-14 4c8 29 16 67 16 76a107 107 0 0 1-127 105 148 148 0 0 1-259-98c0-6 1-31 4-55 1-11 2-20 3-27a34 34 0 0 1-17-4c-18-9-26-31-21-55l0 0c11-45 37-79 66-86 3-24 15-74 57-106l-16-33c-33-10-51-16-54-18a66 66 0 0 1-26-24c-120-39-188-98-188-161v-151c0-28 30-58 58-58z m320 417c27 0 51 5 72 15l15-30-16-108c-23-10-64-19-72-19-8 0-48 9-70 18l-15 106 16 32c20-10 44-14 70-14z m-1-169c9 0 41 6 67 15l-36-236h-59l-37 235c25-8 56-14 65-14z m338-39v-151c0-13-17-31-30-31h-240l123 196c9 13 13 29 11 42a31 31 0 0 1-13 20 82 82 0 0 1-15 8 140 140 0 0 1 23 29 49 49 0 0 1 5 13c4-1 7-2 11-4 17-39 29-90 31-140a56 56 0 1 1 27-1 449 449 0 0 1-22 124c56-30 89-68 89-105z m-81-44a29 29 0 0 0 5-1 28 28 0 1 0-5 1z m-82 186a19 19 0 0 0-2-16c-11-20-34-37-34-37a14 14 0 0 1 5-24c8-2 23-7 30-12a5 5 0 0 0 1-2c1-5 0-13-7-22 0 0 0 0 0 0l-102-161 32 208 15 101c21-8 41-15 44-16 9-5 16-12 18-19z m-299 212a13 13 0 0 1-6 11 14 14 0 0 1-7 2h-1c-17 0-41 27-51 67-3 12 1 22 6 25 6 2 11-2 14-6a14 14 0 0 1 21 17c-4 12-10 86-10 99a120 120 0 0 0 216 74 14 14 0 0 1 14-5 80 80 0 0 0 102-76c0-10-17-81-23-92a14 14 0 0 1 21-17c2 3 8 8 14 5 5-3 9-11 6-24-10-40-34-67-51-66a14 14 0 0 1-14-14c-1-11-8-71-56-101-18-12-42-18-70-18-27 0-51 6-70 18-49 30-54 90-55 101z m-26-193c3 1 20 7 40 13l15-106c0 0 0 0 0 0l31-199-97 158c0 0 0 0-1 0-5 9-7 18-6 23a5 5 0 0 0 1 3c6 4 22 9 30 11a14 14 0 0 1 5 24c-6 5-25 21-34 38a19 19 0 0 0-2 16c2 7 8 14 18 19z m-200-161c0 41 42 82 114 114a520 520 0 0 1-22-67l-14 1a35 35 0 0 1-38-31l-28-99a14 14 0 0 1-1-3 35 35 0 0 1 33-37 14 14 0 0 1 2 27 8 8 0 0 0-7 7l28 99a14 14 0 0 1 0 3 8 8 0 0 0 9 7l49-3a8 8 0 0 0 7-9 14 14 0 0 1 0-3l14-101a8 8 0 0 0-8-7 14 14 0 0 1-2-27q1 0 3 0a35 35 0 0 1 35 33 14 14 0 0 1 0 3l-15 102a35 35 0 0 1-32 36l-7 0c8 31 20 63 31 84 1 0 2 1 3 1a48 48 0 0 1 6-17 142 142 0 0 1 23-30 86 86 0 0 1-15-8 31 31 0 0 1-13-20c-3-13 1-29 11-43l119-194h-254c-13 0-31 18-31 31z" horiz-adv-x="1000" />

<glyph glyph-name="drips" unicode="&#xe815;" d="M262-80a14 14 0 0 1 13 14v826a25 25 0 0 0 26 26h232a6 6 0 0 0 6-6v-78a33 33 0 0 1 33-34h26v-64h-96a33 33 0 0 1-33-33v-353a92 92 0 0 1 62-88v-41c0-22 14-41 34-49v-43a45 45 0 0 1 31-43v-53a14 14 0 0 1 27 0v53a45 45 0 0 1 31 43v41a53 53 0 0 1 36 51v41a92 92 0 0 1 62 88v353a33 33 0 0 1-33 33h-94v64h35a33 33 0 0 1 32 26l9 41a14 14 0 0 1-26 6l-9-41a6 6 0 0 0-6-4h-88a6 6 0 0 0-6 6v78a33 33 0 0 1-33 33h-232a53 53 0 0 1-53-53v-826a14 14 0 0 1 14-14z m347 60a18 18 0 0 0-17 17v39h35v-39a18 18 0 0 0-18-17z m53 109c0-14-11-26-24-26h-53c-14 0-26 12-26 26v36c0 0 1 0 2 0h99c1 0 1 0 2 0z m-2 64h-99a65 65 0 0 0-65 65v132h229v-132a65 65 0 0 0-65-65z m65 418v-194h-229v194a6 6 0 0 0 6 6h217a6 6 0 0 0 6-6z" horiz-adv-x="1000" />

<glyph glyph-name="dropper" unicode="&#xe816;" d="M803-17c-4-10-9-21-9-36a60 60 0 1 1 120 0c0 15-4 26-9 36-8 17-39 62-40 64a14 14 0 0 1-11 6h0a14 14 0 0 1-11-6c-4-5-32-48-40-64z m51 31c10-15 22-34 26-43 4-9 7-16 7-24a33 33 0 1 0-66 0c0 9 3 17 7 24 4 9 16 28 26 43z m-340 530a14 14 0 0 1-19 0l-12-12-253 253a93 93 0 0 1-61 28 78 78 0 0 1-60-23c-16-15-24-37-23-60a93 93 0 0 1 28-61l253-253-12-12a14 14 0 0 1 20-19l11 12 242-242c8-8 20-19 33-24 15-6 29-6 42 2l75-64c10-9 19-15 28-18a37 37 0 0 1 11-2 35 35 0 0 1 33 45c-3 9-9 18-19 28l-64 76c7 12 8 26 1 40-6 14-16 25-24 33l-242 242 12 11a14 14 0 0 1 0 20z m-381 145a66 66 0 0 0-19 43 50 50 0 0 0 53 54 66 66 0 0 0 43-20l254-253-78-78z m610-462c4-8 3-14-3-20a14 14 0 0 1-1-18l72-85q0 0 0-1c18-17 12-22 11-24s-8-7-25 10c0 0 0 0-1 1l-84 71a14 14 0 0 1-19-1c-6-7-12-8-21-4-9 4-18 12-25 19l-158 157h155l80-80c6-6 15-15 19-25z m-127 133h-154l-56 56 77 77z" horiz-adv-x="1000" />

<glyph glyph-name="emergency-call" unicode="&#xe817;" d="M703 684a14 14 0 0 1 14 14v49a14 14 0 0 1-27 0v-49a14 14 0 0 1 13-14z m84-80a14 14 0 0 1 14-14h47a14 14 0 0 1 0 28h-47a14 14 0 0 1-14-14z m-156 0a14 14 0 0 1-14 14h-49a14 14 0 0 1 0-28h49a14 14 0 0 1 14 14z m-8 59a14 14 0 0 1 19 19l-34 34a14 14 0 1 1-19-20z m161-4a14 14 0 0 1 10 4l34 33a14 14 0 1 1-20 20l-34-34a14 14 0 0 1 10-23z m34-183v22a24 24 0 0 1-22 24l-16 115c-3 17-18 29-38 29h-68c-20 0-35-12-38-29l-16-115h-8a24 24 0 0 1-24-24v-22a24 24 0 0 1 24-24h182a24 24 0 0 1 24 24z m-155 157c1 5 8 6 11 6h68c4 0 10-1 11-6l16-111h-122z m128-154h-176v16h168c1 0 1 0 1 0 1 0 1 0 1 0h6z m-149-237a14 14 0 0 1 16 1c6 5 143 129 186 179 51 59 76 115 76 173a218 218 0 1 1-252-216l-32-122a14 14 0 0 1 6-15z m-80 223a191 191 0 1 0 331 130c0-52-22-101-69-155h0c-29-34-105-105-150-146l24 94a14 14 0 0 1-12 17 190 190 0 0 0-124 60z m-379-289c48-84 128-196 232-255 39-21 70-29 89-32a148 148 0 0 1 22-2c14 0 25 2 32 7l82 47a57 57 0 0 1 21 78l-53 91c-15 27-51 37-78 22l-46-27c-1 0-1 0-1 0 0-1-17-10-46-3-32 8-83 39-141 139-30 52-62 125-49 182 7 32 26 44 27 45l0 0 47 26c26 16 36 52 20 79l-52 91a57 57 0 0 1-78 21l-82-47c-12-7-23-23-32-44-10-26-16-57-17-92-2-118 55-243 103-326z m-75 326c1 71 26 107 34 112l82 47a29 29 0 0 0 15 4 31 31 0 0 0 8-1 30 30 0 0 0 18-14l53-91a30 30 0 0 0-11-41l-46-27c-11-6-31-24-40-56-14-54 3-123 52-208 50-87 103-138 157-152 32-8 57 0 67 6l47 27a30 30 0 0 0 41-11l52-92a30 30 0 0 0-10-40l-82-48c-9-5-53-7-116 28-99 56-176 164-222 244-47 81-102 200-99 313z" horiz-adv-x="1000" />

<glyph glyph-name="emergency" unicode="&#xe818;" d="M506 661v138a14 14 0 0 1-27 0v-138a14 14 0 0 1 27 0z m416-264a14 14 0 0 1-14 14h-138a14 14 0 0 1 0-28h138a14 14 0 0 1 14 14z m-844 0a14 14 0 0 1 14-14h139a14 14 0 0 1 0 28h-139a14 14 0 0 1-14-14z m100 298a14 14 0 0 1 0-20l99-99a14 14 0 1 1 20 19l-100 100a14 14 0 0 1-19 0z m641 0l-99-100a14 14 0 0 1 19-19l100 99a14 14 0 1 1-20 20z m78-763v25a45 45 0 0 1-45 45h-45v80a45 45 0 0 1-45 45h-27l-51 346c-6 39-43 68-85 68h-200c-43 0-79-29-85-68l-52-346h-26a45 45 0 0 1-45-45v-80h-45a45 45 0 0 1-44-45v-25a45 45 0 0 1 44-45h706a45 45 0 0 1 45 45z m-556 537c4 26 29 45 58 45h200c29 0 54-19 58-45l50-342h-142v183c0 40-30 72-66 72s-65-32-65-72v-183h-144z m120-342v183c0 24 17 45 38 45s38-21 38-45v-183z m-242-45a17 17 0 0 0 17 18h526a18 18 0 0 0 17-18v-80h-560z m-90-150v25a18 18 0 0 0 17 18h706a18 18 0 0 0 17-18v-25a18 18 0 0 0-17-18h-706a18 18 0 0 0-17 18z" horiz-adv-x="1000" />

<glyph glyph-name="eye-1" unicode="&#xe819;" d="M433 531c-51 26-115 26-161 0-40-23-55-43-56-44a14 14 0 0 1-1-16c2-2 40-60 137-60 93 0 136 57 137 60a14 14 0 0 1 1 14c-1 3-13 24-57 46z m-51-11a37 37 0 1 0-66-20 36 36 0 0 0 7 21 154 154 0 0 0 59-1z m-137-42a211 211 0 0 0 40 29c2 1 3 2 5 2a65 65 0 0 1-1-8 64 64 0 0 1 38-61c-45 6-71 26-82 38z m134-37a64 64 0 0 1 37 68c1-1 3-1 5-2 21-11 33-21 39-28-11-11-38-32-81-38z m122 101c-83 68-160 65-209 49-54-16-88-48-89-50a14 14 0 0 1 19-19 212 212 0 0 0 79 44c62 18 124 3 183-45a14 14 0 0 1 17 21z m431-491c-15 15-38 17-58 5l-216 216c10 20 8 45-8 61l-23 23c62 117 44 267-55 366h0c-122 121-319 121-441 0a311 311 0 0 1 363-498l24-23c8-8 19-13 32-13a61 61 0 0 1 7 1 67 67 0 0 1 22 6l217-218c-11-21-10-45 4-59l21-21a22 22 0 0 1 31 0l102 101a22 22 0 0 1 0 31z m-118-52l-213 213 39 39 213-213z m-663 302a284 284 0 0 0 401 401c111-110 111-291 0-401s-291-111-401 0z m403-85c-7-1-14 0-17 4l-19 19a312 312 0 0 1 94 93l18-19c9-8 10-24-2-35l-51-51a39 39 0 0 0-23-11z m283-296l-18 18c-7 7-2 25 10 37l51 51c6 7 14 10 21 10a17 17 0 0 0 12-5l17-17z m-321 746h0a233 233 0 1 1 0-330 234 234 0 0 1 0 330z m-19-311a206 206 0 1 0 0 292 206 206 0 0 0 0-292z" horiz-adv-x="1000" />

<glyph glyph-name="eye-2" unicode="&#xe81a;" d="M729 389c-70 36-150 56-232 57-84 0-164-19-231-57-113-65-157-122-159-125a14 14 0 0 1-1-15c1-2 24-38 85-74 99-59 221-72 306-72 153 0 251 39 306 72 61 36 85 72 86 74a14 14 0 0 1 1 14c-1 2-35 61-161 126z m-232 29a506 506 0 0 0 107-12 138 138 0 1 0-213-1 14 14 0 0 1 2 3 471 471 0 0 0 104 10z m290-221c-94-55-210-66-290-66-81 0-197 11-291 66-39 23-61 47-71 59 16 17 60 61 145 109a384 384 0 0 0 73 32 164 164 0 0 1-21-76 166 166 0 0 1 161-170q3 0 5 0a166 166 0 0 1 146 244 470 470 0 0 0 72-30c93-48 132-92 145-108-10-12-33-36-74-60z m134 205a14 14 0 0 1 9 24c-107 88-219 142-333 162-91 16-184 10-276-18-155-47-252-141-256-144a14 14 0 0 1 19-20c1 1 97 93 246 138 88 27 176 32 263 17 109-19 217-72 320-156a14 14 0 0 1 8-3z m-423-137a48 48 0 1 1-48 48 48 48 0 0 1 48-48z m0 69a21 21 0 1 0-21-21 21 21 0 0 0 21 21z" horiz-adv-x="1000" />

<glyph glyph-name="eye-drop" unicode="&#xe81b;" d="M419 110h42v-45c0-12 11-22 22-22h34c11 0 20 10 20 22v45h42c12 0 21 9 21 21v32c0 11-9 21-21 21h-42v43c0 12-9 21-20 21h-34c-11 0-22-9-22-21v-43h-42c-12 0-22-10-22-21v-32c0-12 10-21 22-21z m5 47h44c12 0 20 9 20 21v43h22v-43c0-12 10-21 22-21h40v-20h-40c-12 0-22-9-22-21v-45h-22v45c0 12-8 21-20 21h-44z m-98 171v-369c0-39 37-74 77-74h203c37 0 66 33 66 74v369c0 23-18 41-54 55a255 255 0 0 1-40 12v22a13 13 0 0 1 10 13v43c0 8-5 14-13 14h-20l-21 291c-1 24-16 42-35 42s-34-18-34-42l-22-291h-20c-8 0-15-6-15-14v-43a14 14 0 0 1 12-13v-23c-29-8-94-27-94-66z m225 88v-19h-104v19z m94-103v-334h-291v334z m-39-401h-203c-22 0-43 19-48 40h290c-3-25-21-40-39-40z m33 428h-276c14 12 46 24 75 30h129c26-5 58-17 72-30z m-147 437c0 0 0 0 0 0 0 10 5 16 7 16 2 0 7-6 7-16 0 0 0 0 0-1l22-289h-57z m-56-318h125v-15h-125z" horiz-adv-x="1000" />

<glyph glyph-name="eye" unicode="&#xe81c;" d="M205 71a14 14 0 1 1 20 19 377 377 0 0 0 410 614l-41-88a14 14 0 0 1 17-18l138 50a14 14 0 0 1 9 17l-51 139a14 14 0 0 1-25 1l-36-77a404 404 0 0 1-441-657z m488 693l34-95-94-34z m102-135a14 14 0 1 1-20-19 377 377 0 0 0-410-614l41 88a14 14 0 0 1-17 18l-138-50a14 14 0 0 1-9-17l51-139a14 14 0 0 1 12-9c0 0 0 0 0 0a14 14 0 0 1 13 8l36 77a404 404 0 0 1 441 657z m-488-693l-34 95 94 34z m193 554c-2 0-3 0-5 0a397 397 0 0 1-93-11c0 0 0 0-1 0a340 340 0 0 1-88-35c-91-52-127-98-129-100a14 14 0 0 1 0-17c2-1 28-34 79-67 48-30 128-66 237-66 107 0 187 36 235 66 52 33 79 65 80 67a14 14 0 0 1 2 15c-1 2-28 50-131 102a419 419 0 0 1-186 46z m89-39a107 107 0 0 0 19-64 108 108 0 0 0-216 6 107 107 0 0 0 21 60c56 13 117 12 176-2z m198-115a358 358 0 0 0-68-54c-45-28-119-61-219-61-102 0-176 33-221 61a338 338 0 0 0-66 53c18 19 55 52 114 85a298 298 0 0 0 48 23 136 136 0 0 1 121-189c2 0 3 0 4 0a135 135 0 0 1 125 187 369 369 0 0 0 49-21c70-36 102-69 113-84z m-287 4a41 41 0 1 1-41 41 41 41 0 0 1 41-41z m0 55a14 14 0 1 0-14-14 14 14 0 0 0 14 14z" horiz-adv-x="1000" />

<glyph glyph-name="first-aid-kit" unicode="&#xe81d;" d="M615 397v49a18 18 0 0 1-17 17h-57v57a18 18 0 0 1-18 18h-48a18 18 0 0 1-18-18v-57h-57a18 18 0 0 1-17-17v-49a18 18 0 0 1 17-18h57v-56a18 18 0 0 1 18-18h48a18 18 0 0 1 18 18v56h57a18 18 0 0 1 17 18z m-27 10h-57a18 18 0 0 1-17-18v-57h-30v57a18 18 0 0 1-17 18h-57v29h57a18 18 0 0 1 17 18v56h30v-56a18 18 0 0 1 17-18h57z m322 218h-262v77a53 53 0 0 1-52 52h-192a53 53 0 0 1-52-52v-77h-262a53 53 0 0 1-53-52v-535a92 92 0 0 1 92-92h742a92 92 0 0 1 92 92v535a53 53 0 0 1-53 52z m-472-572v147a25 25 0 0 0 25 25h74a25 25 0 0 0 26-25v-147z m99 199h-74a53 53 0 0 1-53-52v-12h-164a65 65 0 0 0-64 64v346h648v-346a65 65 0 0 0-64-64h-176v12a53 53 0 0 1-53 52z m-158 450a25 25 0 0 0 25 25h192a25 25 0 0 0 25-25v-77h-242z m557-664a65 65 0 0 0-65-65h-742a65 65 0 0 0-64 65v535a25 25 0 0 0 25 25h64v-346a92 92 0 0 1 92-91h164v-108h-84a14 14 0 0 1 0-27h358a14 14 0 0 1 0 27h-94v108h176a92 92 0 0 1 91 91v346h53a25 25 0 0 0 26-25z" horiz-adv-x="1000" />

<glyph glyph-name="flask" unicode="&#xe81e;" d="M61-45c15-31 49-50 87-50h714c35 0 64 15 77 41 14 26 10 59-10 88l-314 548v108h58c7 0 13 6 13 14v78a13 13 0 0 1-4 9 13 13 0 0 1-9 4h-346c-7 0-14-6-14-13v-78a14 14 0 0 1 4-10 15 15 0 0 1 10-4h42v-108l-301-548c-18-24-20-53-7-79z m279 813h318v-51h-318z m55-196a13 13 0 0 1 2 7v111h191v-111a14 14 0 0 1 2-7l243-425h-357a63 63 0 0 1-124 0h-190z m54-425h-70a35 35 0 0 0 70 0z m-358-129a14 14 0 0 1 1 2l56 101a14 14 0 0 1 6-1h686a14 14 0 0 1 7 2l59-102c0-1 0-1 0-1 15-21 18-43 9-60-9-17-28-27-53-27h-714c-28 0-52 14-63 35-8 17-6 35 6 51z m187-66a63 63 0 1 1-62 62 63 63 0 0 1 62-62z m0 97a35 35 0 1 0-35-35 35 35 0 0 0 35 35z m437-69a53 53 0 1 1-53 53 53 53 0 0 1 53-53z m0 78a25 25 0 1 0-26-25 25 25 0 0 0 26 25z m-117 141q0 0 1 0a62 62 0 1 1-1 0z m-26 87a35 35 0 0 0 25 10c0 0 0 0 1 0a35 35 0 0 0 24-9 34 34 0 0 0 11-25v0a36 36 0 0 0-10-25 35 35 0 0 0-51 49z m-194 56a52 52 0 0 1 36-15c0 0 1 0 1 0a53 53 0 1 1-37 15z m18 56a25 25 0 0 0 18 7q0 0 0 0a25 25 0 0 0 18-7 25 25 0 0 0 8-17v0a26 26 0 0 0-8-19 25 25 0 0 0-36 36z" horiz-adv-x="1000" />

<glyph glyph-name="glucometer-1" unicode="&#xe81f;" d="M303 171c5-53 53-98 105-98h43v-106a33 33 0 0 1 31-33v-31a14 14 0 0 1 28 0v31a33 33 0 0 1 31 33v106h51c53 0 100 43 105 97l49 546c2 25-6 49-22 66-17 19-42 29-69 29h-310c-27 0-51-10-68-29a88 88 0 0 1-23-67z m211-204a6 6 0 0 0-6-6h-24a6 6 0 0 0-5 6v106h35z m-217 797c12 13 29 20 48 20h310c20 0 37-7 49-20a59 59 0 0 0 15-46l-50-546c-3-39-38-72-77-72h-184c-39 0-74 34-77 74l0 0-49 543a60 60 0 0 0 15 47z m56-393a125 125 0 0 1 30-68c18-20 42-31 67-31h100c55 0 91 50 97 99h0c11 80 15 286 16 302a48 48 0 0 1-12 37c-9 11-23 17-39 17h-224c-16 0-30-6-39-17a48 48 0 0 1-12-37c1-16 6-218 16-302z m16 321a24 24 0 0 0 19 8h224a24 24 0 0 0 19-8 21 21 0 0 0 5-17c-1 0-1-1-1-1 0-2-5-219-15-299-5-38-30-76-70-76h-100c-40 0-65 38-70 76-10 84-15 297-15 299q0 0 0 1a21 21 0 0 0 4 17z m43-246h168a22 22 0 0 1 22 21v174a22 22 0 0 1-22 22h-168a22 22 0 0 1-21-22v-174a22 22 0 0 1 21-21z m6 189h156v-162h-156z m121-217h-86a22 22 0 0 1-21-21v-57a22 22 0 0 1 21-21h86a22 22 0 0 1 22 21v57a22 22 0 0 1-22 21z m-6-72h-74v45h74z" horiz-adv-x="1000" />

<glyph glyph-name="glucometer" unicode="&#xe820;" d="M481 188l290-169c0 0 1 0 1 0l118-118a47 47 0 0 1 33-14 39 39 0 0 1 28 11c16 17 15 44-3 62l-118 118c0 0 0 0 0 0l-167 291a298 298 0 0 1-41 53l-368 368a77 77 0 0 1-109 0l-85-85a77 77 0 0 1 0-109l368-368a308 308 0 0 1 53-40z m451-270c-6-6-16-4-23 3l-111 111 20 20 111-112c7-7 8-17 3-22z m-867 733a49 49 0 0 0 15 35l85 85a50 50 0 0 0 70 0l368-368a275 275 0 0 0 36-47l162-282-25-26-281 163a280 280 0 0 0-47 37l-368 368a49 49 0 0 0-15 35z m177 67a45 45 0 0 1-64 0l-46-46a45 45 0 0 1 0-64l164-165a45 45 0 0 1 65 0l45 46a45 45 0 0 1 0 64z m145-210l-46-46a18 18 0 0 0-25 0l-165 165a18 18 0 0 0 0 25l46 46a18 18 0 0 0 26 0l164-164a18 18 0 0 0 0-26z" horiz-adv-x="1000" />

<glyph glyph-name="heart-1" unicode="&#xe821;" d="M540 6h-80c-15 0-28-12-28-27v-17c0-16 13-28 28-28h80c15 0 28 12 28 28v17c0 15-13 27-28 27z m1-44c0 0-1-1-1-1h-80c0 0-1 1-1 1v17c0 0 1 0 1 0h80c0 0 1 0 1 0z m188 742a14 14 0 0 1-14 13h-430a14 14 0 0 1-13-13v-666a14 14 0 0 1 13-14h430a14 14 0 0 1 14 14z m-28-653h-402v639h402z m78 434v238a90 90 0 0 1-90 90h-378a89 89 0 0 1-88-90v-105a17 17 0 0 1-16-17v-47a17 17 0 0 1 16-17v-9a17 17 0 0 1-16-18v-47a17 17 0 0 1 16-17v-469a89 89 0 0 1 88-90h378a90 90 0 0 1 90 90v413a18 18 0 0 1 14 17v61a18 18 0 0 1-14 17z m-13-69h-1a13 13 0 0 1-13-13v-426a63 63 0 0 0-63-63h-378a62 62 0 0 0-61 63v483c0 7-7 13-15 13h-1v27h1c8 0 15 7 15 14v36a15 15 0 0 1-15 15h-1v25h1a15 15 0 0 1 15 15v118a62 62 0 0 0 61 63h378a63 63 0 0 0 63-63v-252a14 14 0 0 1 13-14h1z m-340 317h148a14 14 0 0 1 0 27h-148a14 14 0 0 1 0-27z m67-548a14 14 0 0 1 15 0c6 4 163 108 163 225 0 52-32 107-92 107a92 92 0 0 1-79-44 92 92 0 0 1-79 44c-63 0-92-54-92-107 0-118 157-221 164-225z m-72 305a65 65 0 0 0 65-65 14 14 0 0 1 28 0 65 65 0 0 0 65 65c24 0 39-14 48-25 10-15 17-35 17-55 0-53-41-104-75-138a547 547 0 0 0-69-59 540 540 0 0 0-69 58c-34 34-75 86-75 139 0 13 4 80 65 80z" horiz-adv-x="1000" />

<glyph glyph-name="heart-2" unicode="&#xe822;" d="M785 245a68 68 0 0 1-55-27 68 68 0 0 1-54 27c-23 0-41-10-54-27-9-14-14-32-14-52 0-84 110-156 115-159a14 14 0 0 1 15 0c4 3 115 76 115 159 0 38-24 79-68 79z m-10-172a375 375 0 0 0-45-38c-24 17-95 73-95 131 0 9 2 51 41 51a41 41 0 0 0 40-40 14 14 0 0 1 28 0 41 41 0 0 0 41 40c15 0 40-13 40-51 0-35-27-70-50-93z m-45 286a233 233 0 0 1-73-12c-3 23-5 49-7 75-14 163-32 386-242 386-1 0-2 0-3 0-58-1-108-23-147-66-33-35-58-86-73-145a511 511 0 0 1-14-158c7-89-4-178-30-253-36-27-60-60-71-97-16-55-33-138-34-142a14 14 0 0 1 0-3c0-25 20-53 48-53h627a14 14 0 0 1 1 0q9-1 18-1a234 234 0 1 1 0 469z m-532 82c-6 90 16 213 80 283 34 37 77 56 127 56 45 1 81-10 111-31 26-20 46-47 62-85 30-71 38-163 44-244 3-30 5-58 8-83a236 236 0 0 1-96-84l-3 1c0 0 0 0-1 0-13 4-23 7-31 9l-3 1 0 38c40 29 51 76 55 98 26 7 50 38 60 79 5 21-2 40-18 49-14 8-32 6-44-7-2-1-3-2-4-4 3 34 2 60-3 79-7 30-21 38-29 43-1 0-1 1-2 1a48 48 0 0 1-59-3 14 14 0 0 1-2-2c-21-29-58-34-63-35-64 0-76 58-76 60a14 14 0 0 1-22 8c-42-36-44-98-42-133a32 32 0 0 1-17-4c-16-8-24-29-19-52 10-41 34-71 60-79 3-23 15-70 56-99l-1-37-2-1c-8-2-18-5-30-8a14 14 0 0 1-5-2c-26-8-59-19-84-30q-15-7-28-14c20 71 27 152 21 232z m79 73c0 1-14 72 15 117 14-27 43-58 96-58q1 0 1 0c2 0 52 4 82 44a21 21 0 0 0 25 0c1-1 2-1 4-2 5-3 11-7 16-25 6-27 4-73-7-136a14 14 0 0 1 10-16c1 0 11-3 17 9 0 0 1 1 1 3 13 27 23 45 31 52h0c3 4 8 4 12 2 4-2 7-8 4-18-8-37-30-61-45-60a14 14 0 0 1-14-13c-1-11-7-65-50-92-15-10-54-25-64-28-9 3-44 16-61 25a14 14 0 0 1-5 4c-43 29-47 84-48 91a14 14 0 0 1-13 13c0 0-1 0-1 0-15 0-37 24-45 60-3 11 1 19 5 21 4 2 8-2 11-4a14 14 0 0 1 23 11z m67-273a14 14 0 0 1 9 13l1 32c21-9 50-20 57-20 8 0 36 11 58 21l0-33a14 14 0 0 1 9-13c3-1 7-2 13-4 6-1 13-3 21-6-3-12-11-27-24-41-14-15-39-32-77-32s-63 17-77 32c-13 14-21 29-24 41 8 2 16 4 21 6 6 2 11 3 13 4z m-260-323c-10 0-20 13-21 25 3 12 19 89 34 138 14 48 55 89 119 117a725 725 0 0 0 68 25c5-18 16-37 30-52 18-19 49-41 97-41 41 0 70 16 88 33a234 234 0 0 1 120-245z m646 0a207 207 0 1 0 207 207 207 207 0 0 0-207-207z" horiz-adv-x="1000" />

<glyph glyph-name="heart-3" unicode="&#xe823;" d="M106 294c38-64 91-131 157-197 112-113 225-187 226-187a14 14 0 0 1 16 0c1 1 55 43 119 97a222 222 0 0 1 28-2 220 220 0 0 1 112 30l120-129a57 57 0 0 1 41-18 41 41 0 0 1 28 10 42 42 0 0 1 13 35 58 58 0 0 1-16 35l-119 127a221 221 0 0 1 39 171c59 93 90 182 90 265 0 137-84 281-239 281a239 239 0 0 1-224-158 239 239 0 0 1-225 158c-79 0-143-32-185-93-34-49-53-116-53-188 0-75 24-155 72-237z m824-345a31 31 0 0 0 9-18c0-3 0-9-4-13-7-6-21-3-31 7l-117 126a223 223 0 0 1 26 23z m-278 83a194 194 0 1 0 194 194 194 194 0 0 0-194-194z m-380 753a211 211 0 0 0 211-211 14 14 0 0 1 27 0 211 211 0 0 0 211 211c82 0 131-44 158-81 34-47 53-110 53-173 0-72-24-149-72-229a221 221 0 1 1-270-288c-43-36-79-64-94-76a1559 1559 0 0 0-214 178c-64 65-116 129-152 192-46 78-69 153-69 223 0 118 56 254 211 254z" horiz-adv-x="1000" />

<glyph glyph-name="heart-4" unicode="&#xe824;" d="M344 388a14 14 0 0 1 14 0c5 3 109 72 109 151a85 85 0 0 1-15 49 60 60 0 0 1-50 25 65 65 0 0 1-51-25 65 65 0 0 1-51 25c-22 0-39-9-51-26-9-13-14-30-14-48 0-80 104-148 109-151z m-44 198a38 38 0 0 0 37-38 14 14 0 0 1 28 0 38 38 0 0 0 37 38c15 0 38-13 38-47 0-33-26-66-47-87a352 352 0 0 0-42-36c-30 21-89 73-89 123 0 45 31 47 38 47z m52-397a312 312 0 0 1 142 34l24-24c8-8 19-12 32-12a61 61 0 0 1 7 0 67 67 0 0 1 22 6l217-217c-11-21-10-45 4-59l21-22a21 21 0 0 1 16-6h0a21 21 0 0 1 15 6l101 102v0c10 8 9 22 0 30l-21 22c-16 15-38 17-58 5l-216 217c10 20 8 44-8 60l-23 23c62 118 44 267-55 366h0c-122 122-319 122-441 0a311 311 0 0 1 221-531z m288 61l213-213-39-40-213 213z m261-215a17 17 0 0 0 12-5l17-18-93-94-18 18c-7 7-2 25 10 37l51 51c6 7 14 11 21 11z m-270 277c8-8 9-24-3-36l-51-51a39 39 0 0 0-23-11c-7-1-14 1-17 4l-19 19a312 312 0 0 1 94 93z m-480 389a284 284 0 0 0 401 0c111-111 111-291 0-402s-291-111-401 0a284 284 0 0 0 0 402z m200-435a233 233 0 0 1 165 399h0a234 234 0 1 1-165-399z m-146 379a206 206 0 0 0 292 0h0a206 206 0 1 0-292 0z" horiz-adv-x="1000" />

<glyph glyph-name="heart-5" unicode="&#xe825;" d="M893 336c30 64 46 126 46 186 0 136-84 280-239 280a239 239 0 0 1-224-158 239 239 0 0 1-225 159c-79 0-143-33-185-93-34-50-53-117-53-188 0-76 24-156 72-238 38-64 90-131 156-197 112-113 226-187 227-187a14 14 0 0 1 15 0c2 1 46 30 107 80a234 234 0 1 1 303 356z m-417-408a1558 1558 0 0 0-215 178c-65 65-116 129-153 192-45 78-68 153-68 224 0 117 55 253 211 253a211 211 0 0 0 211-211 14 14 0 0 1 27 0 211 211 0 0 0 211 211c82 0 131-44 158-81 34-47 53-110 53-172 0-55-14-112-41-171a234 234 0 0 1-298-351c-45-37-81-62-96-72z m277 13a207 207 0 1 0 207 207 207 207 0 0 0-207-207z m11 339a13 13 0 0 1-11 6h0a13 13 0 0 1-11-6c-3-3-57-84-71-114-8-16-17-36-17-60a99 99 0 0 1 197 0c0 24-7 42-16 60-14 30-68 111-71 114z m-11-245a71 71 0 0 0-71 71c0 18 7 34 13 49 10 20 41 68 58 93 17-25 48-73 58-93 9-19 13-32 13-49a71 71 0 0 0-71-71z" horiz-adv-x="1000" />

<glyph glyph-name="heart-6" unicode="&#xe826;" d="M860 270h-65v64c0 8-5 14-13 14h-62c-8 0-15-6-15-14v-64h-65c-8 0-15-6-15-14v-62c0-8 7-14 15-14h65v-66c0-8 7-14 15-14h62c8 0 13 6 13 14v66h65c8 0 13 6 13 14v62c0 8-5 14-13 14z m-14-63h-64c-7 0-14-6-14-13v-67h-36v67c0 7-5 13-12 13h-68v36h68c7 0 12 6 12 13v65h36v-65c0-7 7-13 14-13h64z m-605-120c112-113 226-187 227-187a14 14 0 0 1 15 0c1 0 73 47 158 122a234 234 0 0 1 276 373c14 43 22 86 22 127 0 136-84 280-239 280a239 239 0 0 1-224-158 239 239 0 0 1-225 159c-79 0-143-33-185-93-34-50-53-117-53-188 0-76 24-156 72-238 38-64 90-131 156-197z m719 141a207 207 0 1 0-207 207 207 207 0 0 0 207-207z m-709 547a211 211 0 0 0 211-211 14 14 0 0 1 27 0 211 211 0 0 0 211 211c82 0 131-44 158-81 34-47 53-110 53-172a369 369 0 0 0-17-107 234 234 0 1 1-277-377 1556 1556 0 0 0-141-110 1559 1559 0 0 0-216 179c-64 64-115 129-152 191-45 78-68 153-68 224 0 117 55 253 211 253z" horiz-adv-x="1000" />

<glyph glyph-name="heart-beat" unicode="&#xe827;" d="M266 87c112-113 225-187 227-187a14 14 0 0 1 15 0c1 0 114 75 226 188 66 66 119 133 157 197 48 82 72 162 72 237 0 136-84 280-238 280a239 239 0 0 1-225-158 239 239 0 0 1-225 159c-78 0-142-33-185-93-34-50-53-117-53-188 0-76 24-156 72-238 38-64 91-131 157-197z m449 20a1577 1577 0 0 0-215-179 1560 1560 0 0 0-215 179c-50 50-92 100-126 149h200a14 14 0 0 1 13 9l13 30 28-111a14 14 0 0 1 26 1l37 195 32-257a14 14 0 0 1 13-12c0 0 0 0 1 0a14 14 0 0 1 13 11l40 197 21-71a14 14 0 0 1 13-9h0a14 14 0 0 1 13 9l16 48 9-27a14 14 0 0 1 13-9h183c-34-50-77-101-128-153z m-440 668a211 211 0 0 0 211-211 14 14 0 0 1 28 0 211 211 0 0 0 211 211c81 0 130-44 157-81 34-47 54-110 54-172 0-70-23-145-69-223q-3-6-7-11h-190l-20 56a14 14 0 0 1-26-1l-14-44-25 80a14 14 0 0 1-26-1l-34-169-33 261a14 14 0 0 1-27 0l-41-218-22 89a14 14 0 0 1-26 2l-26-59h-208c-3 5-6 10-9 14-46 78-68 153-68 224 0 117 55 253 210 253z" horiz-adv-x="1000" />

<glyph glyph-name="heart" unicode="&#xe828;" d="M493 155a14 14 0 0 1 15 0c7 6 193 128 193 267 0 60-37 125-107 125a108 108 0 0 1-94-55 108 108 0 0 1-94 55c-74 0-107-63-107-125 0-140 186-261 194-267z m-148 334c14 20 35 31 61 31a80 80 0 0 0 80-81 14 14 0 0 1 28 0 80 80 0 0 0 80 80c30 0 49-16 59-30 13-18 21-43 21-67 0-109-140-215-174-239a646 646 0 0 0-84 71c-74 74-90 132-90 168 0 26 7 50 19 67z m-140-418a14 14 0 1 1 20 19 377 377 0 0 0 410 614l-41-88a14 14 0 0 1 17-18l138 50a14 14 0 0 1 9 17l-51 139a14 14 0 0 1-25 1l-36-77a404 404 0 0 1-441-657z m488 693l34-95-94-34z m188-376a377 377 0 0 0-516-392l41 88a14 14 0 0 1-17 18l-138-50a14 14 0 0 1-9-17l51-139a14 14 0 0 1 12-9c0 0 0 0 0 0a14 14 0 0 1 13 8l36 77a404 404 0 0 1 441 657 14 14 0 1 1-20-19 378 378 0 0 0 106-222z m-574-452l-34 95 94 34z" horiz-adv-x="1000" />

<glyph glyph-name="hospital" unicode="&#xe829;" d="M422 557h43v-41a22 22 0 0 1 21-21h34a22 22 0 0 1 21 21v41h39a22 22 0 0 1 22 22v31a22 22 0 0 1-22 21h-39v39a22 22 0 0 1-21 22h-34a22 22 0 0 1-21-22v-39h-43a22 22 0 0 1-22-21v-31a22 22 0 0 1 22-22z m6 47h43a22 22 0 0 1 21 21v40h22v-40a22 22 0 0 1 21-21h39v-20h-39a22 22 0 0 1-21-21v-41h-22v41a22 22 0 0 1-21 21h-43z m515-96h-173v207h37a18 18 0 0 1 17 18v62a18 18 0 0 1-17 18h-614a18 18 0 0 1-17-18v-62a18 18 0 0 1 17-18h38v-107h-174a18 18 0 0 1-18-18v-64a18 18 0 0 1 18-18h31v-607a14 14 0 0 1 14-14h796a14 14 0 0 1 14 14v508h31a18 18 0 0 1 18 17v65a18 18 0 0 1-18 17z m-740 278h594v-43h-594z m-137-205h165v-45h-165z m49-73h116v-594h-116z m143 207h484v-801h-154v221a22 22 0 0 1-22 22h-130a22 22 0 0 1-22-22v-221h-156z m303-801h-120v215h120z m324 0h-115v495h115z m49 522h-164v45h164z m-578 18h-41a22 22 0 0 1-22-22v-49a22 22 0 0 1 22-21h41a22 22 0 0 1 21 21v49a22 22 0 0 1-21 22z m-6-65h-30v37h30z m6-90h-41a22 22 0 0 1-22-21v-49a22 22 0 0 1 22-22h41a22 22 0 0 1 21 22v49a22 22 0 0 1-21 21z m-6-64h-30v37h30z m170 219h-41a22 22 0 0 1-22-22v-49a22 22 0 0 1 22-21h41a22 22 0 0 1 21 21v49a22 22 0 0 1-21 22z m-6-65h-30v37h30z m6-90h-41a22 22 0 0 1-22-21v-49a22 22 0 0 1 22-22h41a22 22 0 0 1 21 22v49a22 22 0 0 1-21 21z m-6-64h-30v37h30z m131 127h41a22 22 0 0 1 21 21v49a22 22 0 0 1-21 22h-41a22 22 0 0 1-22-22v-49a22 22 0 0 1 22-21z m5 64h30v-37h-30z m-5-219h41a22 22 0 0 1 21 22v49a22 22 0 0 1-21 21h-41a22 22 0 0 1-22-21v-49a22 22 0 0 1 22-22z m5 65h30v-37h-30z m153-2h41a22 22 0 0 1 21 21v49a22 22 0 0 1-21 22h-41a22 22 0 0 1-22-22v-49a22 22 0 0 1 22-21z m6 64h29v-37h-29z m-616 28h-41a22 22 0 0 1-21-22v-49a22 22 0 0 1 21-21h41a22 22 0 0 1 22 21v49a22 22 0 0 1-22 22z m-5-65h-30v37h30z" horiz-adv-x="1000" />

<glyph glyph-name="kidney-1" unicode="&#xe82a;" d="M879 659a171 171 0 0 1-107 40 103 103 0 0 1-105-102c0-26 21-48 40-65a84 84 0 0 1-26-24c-32 3-112 22-130 60-20 43-17 136-11 207a14 14 0 0 1-14 14l-81-1a14 14 0 0 1-13-14c8-139 8-230-1-271-9-42-74-111-109-118a82 82 0 0 1-28 16c18 17 37 38 37 64a104 104 0 0 1-106 100 171 171 0 0 1-107-41c-56-49-83-128-81-235 3-97 32-169 86-213 40-33 87-43 115-43a137 137 0 0 1 134 141c-1 29-14 56-38 79a154 154 0 0 1-16 13 76 76 0 0 1 15 17 50 50 0 0 1 7 18c34 5 60 19 86 39 6-98 20-333 7-411a14 14 0 0 1 13-16l93-2 0 0a14 14 0 0 1 14 15c-6 61-16 406 7 521 41-17 70-21 107-19a74 74 0 0 1 11-21 82 82 0 0 1 7-8 154 154 0 0 1-18-14c-24-23-37-51-37-80a137 137 0 0 1 135-139c0 0 1 0 1 0 29 0 75 12 114 44 54 45 82 117 83 214 1 108-27 187-84 235z m57-234c-2-89-26-154-74-194-44-37-91-37-97-37a109 109 0 0 0-108 111c1 51 53 78 57 80a14 14 0 0 1-1 27c-7 2-21 19-21 30a14 14 0 0 1-15 14c-44-3-72 0-120 23a14 14 0 0 1-19-9c-28-97-19-440-13-532l-63 2c10 95-4 321-10 409 0 7 0 13-1 18a14 14 0 0 1-22 10c-36-29-61-47-104-50a14 14 0 0 1-12-16c1-4-1-9-4-14-6-9-17-16-21-18a14 14 0 0 1-2-26c5-2 57-28 58-80a110 110 0 0 0-106-112c-5-1-53-1-97 36-48 39-74 104-76 192-3 99 21 171 71 214a143 143 0 0 0 89 35 76 76 0 0 0 78-74c1-18-23-39-38-53-3-2-5-4-7-6a14 14 0 0 1-4-15c4-8 12-10 20-12 10-3 23-6 33-16a14 14 0 0 1 10-5c33 0 71 35 85 50 23 24 49 60 56 90 9 42 9 131 2 264l51 1c-7-101-2-168 15-205 29-62 146-77 163-77a14 14 0 0 1 11 7c10 16 22 23 37 28a14 14 0 0 1 4 23c-2 2-4 4-7 6-16 14-39 35-39 52a76 76 0 0 0 76 75c0 0 0 0 1 0a143 143 0 0 0 90-33c50-43 75-114 74-213z m-226-40a14 14 0 0 1 3 0 13 13 0 0 0-3 0z m-420-133a13 13 0 0 0-3 1 14 14 0 0 1 3-1z" horiz-adv-x="1000" />

<glyph glyph-name="kidney" unicode="&#xe82b;" d="M123 76c40-33 87-43 115-43a137 137 0 0 1 134 141c-2 45-32 76-54 92a76 76 0 0 1 15 17 50 50 0 0 1 7 18c34 5 60 19 86 39 5-93 20-336 7-413a14 14 0 0 1 14-16h92a14 14 0 0 1 14 15c-1 8-2 21-2 38a234 234 0 0 1 360 280c34 45 51 105 52 180 1 108-27 187-84 235a171 171 0 0 1-107 40 103 103 0 0 1-105-102c0-26 21-48 40-65a84 84 0 0 1-26-24c-32 3-112 22-130 60-20 43-17 136-11 207a14 14 0 0 1-14 14l-81-1a14 14 0 0 1-13-14c8-139 8-230-1-271-9-42-74-111-109-118a82 82 0 0 1-28 16c18 17 37 38 37 64a104 104 0 0 1-106 100 171 171 0 0 1-107-41c-56-49-83-128-81-235 3-97 32-169 86-213z m576-138a207 207 0 1 0 207 207 207 207 0 0 0-207-207z m-41 437a234 234 0 0 1-109-51c2 54 6 96 11 123 41-17 70-21 107-19a74 74 0 0 1 11-21 82 82 0 0 1 7-8 152 152 0 0 1-27-24z m-522 128a143 143 0 0 0 89 35 76 76 0 0 0 78-74c1-18-23-39-38-52-3-3-5-5-7-7a14 14 0 0 1-4-15c4-8 12-10 20-12 10-2 23-6 33-16a14 14 0 0 1 10-5c33 0 71 35 85 51 23 23 49 59 56 89 9 42 9 131 2 264l51 1c-7-101-2-168 15-205 29-62 146-77 163-77a14 14 0 0 1 11 7c10 16 22 23 36 28a14 14 0 0 1 5 23c-2 2-4 4-7 6-16 14-39 35-39 52a76 76 0 0 0 77 75 143 143 0 0 0 90-33c50-43 75-114 74-213-1-64-14-115-39-154a234 234 0 0 1-193 108 102 102 0 0 0 11 7 14 14 0 0 1-2 26c-6 1-21 19-21 30a14 14 0 0 1-15 14c-44-3-72 0-120 23a14 14 0 0 1-19-9c-9-31-15-89-18-174a234 234 0 0 1 2-304c1-22 2-40 3-54h-63c10 96-4 323-10 412 0 7 0 13-1 17a14 14 0 0 1-22 10c-36-29-61-47-104-50a14 14 0 0 1-12-16c1-4-1-9-4-14-6-10-17-17-21-18a14 14 0 0 1-2-26c3-1 57-27 58-80a109 109 0 0 0-106-112c-5 0-53-1-97 36-48 39-74 104-76 192-3 99 21 171 71 214z m577-118a13 13 0 0 1 2 1 9 9 0 0 0-2-1z m-426-132a10 10 0 0 0-1 0c0 0 1 0 1 0z m520-67h-65v64a14 14 0 0 1-13 14h-63a14 14 0 0 1-14-14v-64h-66a14 14 0 0 1-14-14v-62a14 14 0 0 1 14-14h66v-66a14 14 0 0 1 14-14h63a14 14 0 0 1 13 14v66h65a14 14 0 0 1 13 14v62a14 14 0 0 1-13 14z m-14-63h-64a14 14 0 0 1-14-13v-67h-35v67a14 14 0 0 1-14 13h-66v36h66a14 14 0 0 1 14 13v65h35v-65a14 14 0 0 1 14-13h64z" horiz-adv-x="1000" />

<glyph glyph-name="knives" unicode="&#xe82c;" d="M922 176a14 14 0 0 1-3 3l-166 166-396 424c0 0 0 0 0 1-15 15-49 18-59 19-16 2-46 2-60-12-11-11-9-31-5-46 3-12 10-29 18-37 0 0 0 0 0 0l440-411 83-83a14 14 0 0 1 2-2l166-107a14 14 0 0 1 19 18z m-306 214l30 30 78-84-24-24z m-33 32l31 32 13-14-31-31z m-35 32l34 34 14-14-33-33z m-290 303c3 3 15 7 38 5 21-2 37-7 41-12l226-242-35-35-258 241c-6 6-15 36-12 43z m534-536l-72 72 23 23 156-156 9-15z m-186-239c62-62 115-72 143-72a82 82 0 0 1 22 3 14 14 0 0 1 6 22l-217 217-396 424 0 1c-15 15-49 19-59 19-16 2-45 2-60-12-11-11-9-31-5-46 3-12 10-29 18-37 0 0 0 0 0 0l440-411z m19 20l-98 98 23 23 185-185c-25 4-64 18-110 64z m-118 117l-84 78 30 30 78-84z m-117 110l31 32 13-14-31-31z m-35 32l34 34 14-14-33-33z m-290 304c3 2 16 6 38 4 21-2 37-7 41-12l226-242-35-35-258 241c-6 6-15 36-12 44z m834-515c8 4 14 7 15 15a14 14 0 0 1-13 15c-1 0-74 3-112 40l-130 131-396 424c0 0 0 0 0 0-16 16-49 19-59 20-16 1-46 1-60-13-11-11-9-30-5-45 3-12 9-29 18-37 0 0 0 0 0 0l440-411 115-116c33-32 70-42 103-42a209 209 0 0 1 84 19z m-293 168l-84 78 30 30 78-84z m-118 110l32 31 13-13-31-31z m-34 32l34 34 13-15-33-33z m-290 303c3 3 15 7 38 5 21-2 36-7 41-12l226-242-35-35-258 240c-7 7-16 37-12 44z m568-570l-106 106 23 23 121-121c21-21 50-33 75-39-33-7-77-5-113 31z" horiz-adv-x="1000" />

<glyph glyph-name="lifeline-1" unicode="&#xe82d;" d="M904 155a109 109 0 0 1 37 82v392a109 109 0 0 1-109 110h-664a109 109 0 0 1-109-110v-392a109 109 0 0 1 37-82c-33-2-59-28-59-61v-72c0-35 28-63 62-63h802c34 0 62 28 62 63v72c0 33-26 59-59 61z m-736 556h664a82 82 0 0 0 82-82v-175l-64 0a14 14 0 0 1-13-8l-6-16-14 45a14 14 0 0 1-13 10h0a14 14 0 0 1-13-10l-20-64-37 183a14 14 0 0 1-27-1l-29-238-34 177a14 14 0 0 1-27 1l-26-108-11 23a14 14 0 0 1-12 8h-114l-20 55a14 14 0 0 1-12 9h-1a14 14 0 0 1-12-9l-13-39-22 74a14 14 0 0 1-27-1l-31-154-30 240a14 14 0 0 1-27 1l-38-202-20 80a14 14 0 0 1-26 2l-24-55-65 0v172a82 82 0 0 0 82 82z m-82-474v192l74-1h0a14 14 0 0 1 13 9l11 27 26-102a14 14 0 0 1 26 1l34 178 29-236a14 14 0 0 1 27-1l37 182 20-64a14 14 0 0 1 13-9h0a14 14 0 0 1 13 9l13 42 10-27a14 14 0 0 1 13-9h115l23-49a14 14 0 0 1 26 3l20 83 38-201a14 14 0 0 1 13-11c1 0 1 0 1 0a14 14 0 0 1 13 12l30 242 31-154a14 14 0 0 1 27-1l22 73 12-41a14 14 0 0 1 26-1l17 44 55 0v-190a82 82 0 0 0-82-82h-664a82 82 0 0 0-82 82z m850-215c0-19-16-35-35-35h-802c-19 0-34 16-34 35v72c0 19 14 33 34 33h51a14 14 0 0 1 5 1 110 110 0 0 1 13-1h664a110 110 0 0 1 12 1 14 14 0 0 1 4-1h53c20 0 35-14 35-33z m-783 85a48 48 0 1 1 48-48 48 48 0 0 1-48 48z m0-68a21 21 0 1 0 21 20 21 21 0 0 0-21-20z m611 55h-76a14 14 0 0 1-14-13v-59a14 14 0 0 1 14-14h76a14 14 0 0 1 13 14v59a14 14 0 0 1-13 13z m-14-58h-49v31h49z m129 58h-72a14 14 0 0 1-14-13v-59a14 14 0 0 1 14-14h72a14 14 0 0 1 14 14v59a14 14 0 0 1-14 13z m-14-58h-45v31h45z m-316 76h-234a43 43 0 0 1-43-43v-28a43 43 0 0 1 43-43h234a43 43 0 0 1 43 43v28a43 43 0 0 1-43 43z m16-71a16 16 0 0 0-16-15h-234a16 16 0 0 0-16 15v28a16 16 0 0 0 16 15h234a16 16 0 0 0 16-15z" horiz-adv-x="1000" />

<glyph glyph-name="lifeline-2" unicode="&#xe82e;" d="M500 813a463 463 0 0 1-328-790 463 463 0 1 1 655 654 460 460 0 0 1-327 136z m-308-155a436 436 0 0 0 743-286h-59a14 14 0 0 1-11-6l-24-31-46 155a14 14 0 0 1-27-2l-35-206-18 79a14 14 0 0 1-14 11h-72q-2 3-3 6c-23 48-111 178-115 183a13 13 0 0 1-11 6h0a13 13 0 0 1-12-6c-3-5-92-135-114-183-1-2-2-4-3-6h-70a14 14 0 0 1-13-9l-32-90-22 214a14 14 0 0 1-26 3l-46-155-25 31a14 14 0 0 1-10 6h-62a432 432 0 0 0 127 286z m207-291c17 36 76 125 101 163 25-38 84-127 101-163 13-28 23-51 23-83a124 124 0 1 0-248 0c0 31 11 58 23 83z m409-325a436 436 0 0 0-744 302h56l37-47a14 14 0 0 1 24 5l33 113 21-204a14 14 0 0 1 12-12 14 14 0 0 1 1 0 14 14 0 0 1 13 9l50 136h49a180 180 0 0 1-11-60 151 151 0 1 1 302 0 174 174 0 0 1-11 60h50l31-135a14 14 0 0 1 14-10l0 0a14 14 0 0 1 13 11l37 216 37-124a14 14 0 0 1 24-5l37 47h52a433 433 0 0 0-127-302z" horiz-adv-x="1000" />

<glyph glyph-name="lifeline" unicode="&#xe82f;" d="M540 6h-80c-15 0-28-12-28-27v-17c0-16 13-28 28-28h80c15 0 28 12 28 28v17c0 15-13 27-28 27z m1-44c0 0-1-1-1-1h-80c0 0-1 1-1 1v17c0 0 1 0 1 0h80c0 0 1 0 1 0z m182 742a14 14 0 0 1-14 13h-418a14 14 0 0 1-14-13v-666a14 14 0 0 1 14-14h418a14 14 0 0 1 14 14z m-28-14v-317h-53l-16 46a14 14 0 0 1-26-1l-10-29-17 59a14 14 0 0 1-27-1l-25-124-25 199a14 14 0 0 1-27 1l-32-169-15 63a14 14 0 0 1-26 2l-21-47h-70v318z m-390-639v293h79a14 14 0 0 1 13 8l8 19 21-85a14 14 0 0 1 26 1l28 145 24-196a14 14 0 0 1 13-12c0 0 1 0 1 0a14 14 0 0 1 13 11l31 153 15-49a14 14 0 0 1 13-10h0a14 14 0 0 1 13 10l10 32 6-16a14 14 0 0 1 13-9h63v-295z m474 434v238a90 90 0 0 1-90 90h-378a89 89 0 0 1-88-90v-105a17 17 0 0 1-16-17v-47a17 17 0 0 1 16-17v-9a17 17 0 0 1-16-18v-47a17 17 0 0 1 16-17v-469a89 89 0 0 1 88-90h378a90 90 0 0 1 90 90v413a18 18 0 0 1 14 17v61a18 18 0 0 1-14 17z m-13-69h-1a13 13 0 0 1-13-13v-426a63 63 0 0 0-63-63h-378a62 62 0 0 0-61 63v483c0 7-7 13-15 13h-1v27h1c8 0 15 7 15 14v36a15 15 0 0 1-15 15h-1v25h1a15 15 0 0 1 15 15v118a62 62 0 0 0 61 63h378a63 63 0 0 0 63-63v-252a14 14 0 0 1 13-14h1z m-340 317h148a14 14 0 0 1 0 27h-148a14 14 0 0 1 0-27z" horiz-adv-x="1000" />

<glyph glyph-name="liquid" unicode="&#xe830;" d="M174-92a14 14 0 0 1 14 14v858a6 6 0 0 0 5 6h262v-88a33 33 0 0 1 33-33h30v-61h-120a34 34 0 0 1-33-34v-419a33 33 0 0 1 33-33h43v-16a33 33 0 0 1 34-33h4v-133a14 14 0 1 1 27 0v133h45v-54c0-70 58-128 129-128s129 58 129 128v284a33 33 0 0 1 31 33v46a45 45 0 0 1-31 43v60a14 14 0 1 1-28 0v-60a45 45 0 0 1-31-43v-46a33 33 0 0 1 31-33v-284c0-55-45-100-101-100s-102 45-102 100v54h6a33 33 0 0 1 33 33v16h47a33 33 0 0 1 33 33v419a34 34 0 0 1-33 34h-119v61h29a33 33 0 0 1 32 24l12 44a14 14 0 0 1-27 6l-11-43a6 6 0 0 0-6-4h-86a6 6 0 0 0-6 6v93a22 22 0 0 1-21 22h-268a33 33 0 0 1-33-33v-858a14 14 0 0 1 14-14z m603 424v46a18 18 0 1 0 36 0v-46a6 6 0 0 0-6-5h-24a6 6 0 0 0-6 5z m-187-230a6 6 0 0 0-6-6h-109a6 6 0 0 0-6 6v16h121z m74 43h-266a6 6 0 0 0-5 6v199h277v-199a6 6 0 0 0-6-6z m6 425v-193h-277v193a6 6 0 0 0 5 7h266a6 6 0 0 0 6-7z" horiz-adv-x="1000" />

<glyph glyph-name="lungs-1" unicode="&#xe831;" d="M119 312a377 377 0 0 0 516 392l-41-88a14 14 0 0 1 17-18l138 50a14 14 0 0 1 9 17l-51 139a14 14 0 0 1-25 1l-36-77a404 404 0 0 1-441-657 14 14 0 1 1 20 19 378 378 0 0 0-106 222z m574 452l34-95-94-34z m102-135a14 14 0 1 1-20-19 377 377 0 0 0-410-614l41 88a14 14 0 0 1-17 18l-138-50a14 14 0 0 1-9-17l51-139a14 14 0 0 1 12-9c0 0 0 0 0 0a14 14 0 0 1 13 8l36 77a404 404 0 0 1 441 657z m-488-693l-34 95 94 34z m161 426q-1-1-1-2a370 370 0 0 1-21 66c-9 19-21 30-35 32-6 0-19-1-29-17-59-93-73-196-76-249-1-15 5-28 16-36 12-8 29-9 44-3 12 5 18 12 24 18 9 9 16 16 40 17 7 1 13 4 19 11 17 19 28 66 28 98 10 5 16 7 23 7 7 0 14-2 23-7 0-32 11-79 28-98 6-7 12-10 19-11 25-1 31-8 40-17 6-6 13-13 24-18a53 53 0 0 1 20-4 41 41 0 0 1 24 7c11 8 17 21 16 36-3 53-17 156-76 249-10 15-23 17-29 16-14-1-27-12-35-31a381 381 0 0 1-21-66c0 1 0 2-1 2l0 1c0 3 0 11 3 24a49 49 0 0 1 1 8 28 28 0 0 1-5 16 27 27 0 0 1 0 30 27 27 0 0 1 0 31 28 28 0 0 1 1 29 30 30 0 0 1 6 17c0 19-17 33-38 33s-39-14-39-33a30 30 0 0 1 6-17 28 28 0 0 1 1-29 27 27 0 0 1 0-31 27 27 0 0 1 0-30 28 28 0 0 1-4-16 54 54 0 0 1 1-9c1-5 3-18 3-24z m32 162c6 0 11-4 11-6 0-1-2-2-5-4a14 14 0 0 1-6-6 14 14 0 0 1-7 6c-3 2-4 3-4 4 0 2 4 6 11 6z m5-70a14 14 0 0 1-5-3 14 14 0 0 1-5 3 6 6 0 0 0-4 3c0 0 1 2 4 3a14 14 0 0 1 5 3 14 14 0 0 1 5-3 6 6 0 0 0 3-3 6 6 0 0 0-3-3z m3-28c0 0-1-2-3-3a14 14 0 0 1-5-3 14 14 0 0 1-5 3 6 6 0 0 0-4 3 6 6 0 0 0 4 3 14 14 0 0 1 5 3 14 14 0 0 1 5-3 6 6 0 0 0 3-3z m-3 59a14 14 0 0 1-5-4 14 14 0 0 1-5 4c-3 1-4 2-4 3a5 5 0 0 0 3 2 14 14 0 0 1 6 6 14 14 0 0 1 6-6c2-1 2-2 2-2 0-1-1-2-3-3z m-14-138l1 2c5 8 4 20 0 42 0 2-1 3-1 4a7 7 0 0 0 4 3 14 14 0 0 1 5 4 14 14 0 0 1 5-4 7 7 0 0 0 3-3c0-1 0-2 0-3-4-22-5-35 0-43l1-2c6-8 12-17 31-23a14 14 0 0 1 17 12c2 27 16 65 22 79 5 11 10 15 12 15a11 11 0 0 0 4-4c56-88 69-185 72-236 0-5-1-9-5-11-4-3-11-4-18-1-6 3-9 7-14 12-10 10-23 23-57 25-10 7-25 57-22 88a14 14 0 0 1-7 13c-12 7-27 15-44 15-16 0-28-5-44-15a14 14 0 0 1-7-13c3-31-12-81-22-88-34-2-47-15-57-25-5-5-8-9-14-12-7-3-14-2-18 1-4 2-5 6-5 11 3 51 16 148 72 236a12 12 0 0 0 4 4c2 0 7-4 12-15 7-17 20-53 22-79a14 14 0 0 1 17-12c19 6 26 15 31 23z" horiz-adv-x="1000" />

<glyph glyph-name="lungs-2" unicode="&#xe832;" d="M781 163h-64v64a14 14 0 0 1-14 14h-62a14 14 0 0 1-14-14v-64h-66a14 14 0 0 1-14-14v-63a14 14 0 0 1 14-13h66v-67a14 14 0 0 1 14-13h62a14 14 0 0 1 14 13v67h64a14 14 0 0 1 14 13v63a14 14 0 0 1-14 14z m-13-63h-65a14 14 0 0 1-13-14v-66h-36v66a14 14 0 0 1-13 14h-67v35h67a14 14 0 0 1 13 14v64h36v-64a14 14 0 0 1 13-14h65z m-94-213a233 233 0 0 1 118 32 120 120 0 0 1 36-23 109 109 0 0 1 41-9 80 80 0 0 1 47 14c21 15 32 39 30 69a1354 1354 0 0 1-49 290c-31 110-75 210-131 297-18 28-38 32-52 31-25-2-50-25-67-65-11-25-43-109-54-182-1 0-2-1-4-1-14 7-20 16-28 29-1 1-2 2-3 4-3 6-1 30 6 70a114 114 0 0 1 2 15 50 50 0 0 1-17 37 49 49 0 0 1 0 74 49 49 0 0 1 0 74 50 50 0 0 1 17 37 49 49 0 0 1-14 33c13 11 20 25 20 41 0 32-33 59-73 59s-72-27-72-59c0-16 7-30 19-41a49 49 0 0 1-14-33 50 50 0 0 1 17-37 49 49 0 0 1 0-74 49 49 0 0 1 0-74 50 50 0 0 1-17-37c0-3 1-7 3-18 7-38 9-61 7-67-1-2-2-3-3-4-8-13-15-23-32-31-9 73-41 157-54 185-17 40-42 64-67 66-14 1-34-4-52-32-56-87-100-187-131-297a1354 1354 0 0 1-49-290c-2-30 9-54 30-69a80 80 0 0 1 47-14 109 109 0 0 1 42 9c22 9 36 24 49 37 22 23 43 45 109 48 11 1 22 7 32 19 38 42 65 162 62 233 17 8 38 15 54 19a234 234 0 0 1 195-365z m-207 234a207 207 0 1 0 207-207 207 207 0 0 0-207 207z m433-198c-16-11-39-12-62-2a88 88 0 0 0-22 14 234 234 0 0 1 90 155c6-41 11-82 13-122 1-19-6-35-19-45z m-228 589c12 29 30 48 45 49 11 1 20-10 26-19 55-85 98-182 128-290 1-2 2-5 2-8a234 234 0 0 1-251 106c11 62 38 134 50 162z m-268-259a14 14 0 0 1-6-13c5-70-24-186-55-222-5-6-10-9-13-9-77-5-104-32-127-57-13-12-23-24-41-31-23-10-46-9-62 2-13 10-20 26-19 45a1327 1327 0 0 0 48 284c31 108 74 205 128 290 6 9 15 20 27 19 14-1 31-20 44-49 18-41 49-130 54-194a14 14 0 0 1 18-12c38 12 50 30 62 47 1 2 2 3 3 5 8 13 5 40-3 87-1 5-3 12-3 13 0 10 8 19 21 24a14 14 0 0 1 0 26c-13 5-21 14-21 24s8 19 21 24a14 14 0 0 1 0 26c-13 5-21 14-21 24s8 19 21 24a14 14 0 0 1 0 26c-13 5-21 14-21 24 0 8 6 17 17 22a14 14 0 0 1-1 25c-13 6-21 16-21 27 0 17 21 32 45 32s45-15 45-32c0-11-8-21-21-27a14 14 0 0 1 0-25c10-5 16-14 16-22 0-10-8-19-21-24a14 14 0 0 1 0-26c13-5 21-14 21-24s-8-19-21-24a14 14 0 0 1 0-26c13-5 21-14 21-24s-8-19-21-24a14 14 0 0 1 0-26c13-4 21-14 21-23 0-2-1-7-2-12-8-46-11-76-1-89 1-2 1-3 2-4 6-10 13-19 23-28a236 236 0 0 1-55-42c-20-2-70-13-102-31z" horiz-adv-x="1000" />

<glyph glyph-name="lungs-3" unicode="&#xe833;" d="M897 260c-31 110-75 210-131 297-18 28-38 32-51 31-26-2-51-25-68-65-12-26-44-112-54-185-17 8-23 18-32 31-1 1-2 2-3 4-3 6-1 30 6 70a114 114 0 0 1 2 15 50 50 0 0 1-17 37 49 49 0 0 1 0 74 49 49 0 0 1 0 74 50 50 0 0 1 17 37 49 49 0 0 1-13 33c12 11 19 25 19 41 0 32-33 59-73 59s-72-27-72-59c0-16 7-30 19-41a49 49 0 0 1-14-33 50 50 0 0 1 17-37 49 49 0 0 1 0-74 49 49 0 0 1 0-74 50 50 0 0 1-17-37c0-3 1-7 3-18 7-38 9-61 7-67-1-2-2-3-3-4-8-13-15-23-32-31-9 73-41 157-54 185-17 40-42 64-67 66-14 1-34-4-52-32-56-87-100-187-131-297a1354 1354 0 0 1-49-290c-2-30 9-54 30-69a80 80 0 0 1 47-14 109 109 0 0 1 42 9c22 9 36 24 49 37 22 23 43 45 109 48 11 1 22 7 32 19 38 43 65 162 62 233 33 19 51 25 75 25 23 0 45-7 75-25-3-71 24-190 62-233 10-12 21-18 32-19 66-3 87-25 109-48 13-13 27-28 50-37 31-13 64-12 88 5 21 15 32 39 30 69a1354 1354 0 0 1-49 290z m3-337c-16-11-39-12-62-2-18 7-28 19-41 31-23 25-50 52-127 57-3 0-8 3-13 9-31 36-60 152-55 222a14 14 0 0 1-6 12c-27 17-59 33-96 33-34 0-59-11-96-32a14 14 0 0 1-6-13c5-70-24-186-55-222-5-6-10-9-13-9-77-5-104-32-127-57-13-12-23-24-41-31-23-10-46-9-62 2-13 10-20 26-19 45a1326 1326 0 0 0 48 284c31 108 74 205 128 290 6 9 15 19 25 19 1 0 1 0 2 0 14-1 31-20 44-49 18-41 49-130 54-194a14 14 0 0 1 18-12c38 12 50 30 62 47 1 2 2 3 3 5 8 13 5 40-3 87-1 5-3 12-3 13 0 10 8 19 21 24a14 14 0 0 1 0 26c-13 5-21 14-21 24s8 19 21 24a14 14 0 0 1 0 26c-13 5-21 14-21 24s8 19 21 24a14 14 0 0 1 0 26c-13 5-21 14-21 24 0 8 6 17 17 22a14 14 0 0 1-1 25c-13 6-21 16-21 27 0 17 21 32 45 32s45-15 45-32c0-11-8-21-21-27a14 14 0 0 1 0-25c10-5 16-14 16-22 0-10-8-19-21-24a14 14 0 0 1 0-26c13-5 21-14 21-24s-8-19-21-24a14 14 0 0 1 0-26c13-5 21-14 21-24s-8-19-21-24a14 14 0 0 1 0-26c13-4 21-14 21-23 0-2-1-7-2-12-8-46-11-76-1-89 1-2 1-3 2-5 12-17 24-35 63-47a14 14 0 0 1 17 12c6 67 39 160 54 194 12 29 30 48 45 49 11 1 20-10 26-19 55-85 98-182 128-290a1326 1326 0 0 0 48-284c1-19-6-35-19-45z" horiz-adv-x="1000" />

<glyph glyph-name="lungs" unicode="&#xe834;" d="M639 474c-12 4-25 7-36 11l-18 56c39 29 50 74 54 96 25 7 49 37 59 77 5 22-3 42-19 51a33 33 0 0 1-11 3c3 10 5 21 7 29a14 14 0 0 1-26 6c-7-28-13-46-15-49a14 14 0 0 1 22-17c1 2 6 6 10 4 4-3 7-10 5-20-8-35-30-59-44-59l-1 0a14 14 0 0 1-14-13c0-10-6-62-48-89a14 14 0 0 1-4-3 106 106 0 0 0-37-12 14 14 0 0 1-3-1 149 149 0 0 0-18-1 153 153 0 0 0-20 1 13 13 0 0 1-2 1 105 105 0 0 0-41 14c-44 27-48 84-48 90a14 14 0 0 1-14 13c-15 0-37 23-45 59-2 10 1 18 5 20 4 2 8-2 10-4a14 14 0 0 1 22 16c-1 4-4 17-6 48a14 14 0 0 1-28-2c1-12 2-22 3-30a32 32 0 0 1-13-3c-17-9-25-29-20-52 10-40 34-70 59-77 3-22 14-66 52-95l-20-56a773 773 0 0 1-108-37c-81-35-122-75-122-118v-391c0-26 26-53 52-53h574c27 0 42 27 42 53v391c0 83-108 116-195 143z m-130 42c0-4 0-9 0-15-2-241 1-245 5-250 7-11 17-22 40-29a14 14 0 0 1 18 12c3 33 19 79 27 96 7 16 13 20 14 21 1-1 3-2 6-7 57-89 83-217 88-307 0-5-1-12-7-17-6-4-15-4-25 0-7 3-12 8-18 14-12 13-27 28-68 31-3 2-12 14-20 48-7 26-10 56-9 73a14 14 0 0 1-6 13c-15 9-32 18-52 18-19 0-33-6-52-18a14 14 0 0 1-7-13c1-17-2-47-9-73-8-34-17-46-20-48-41-3-56-18-68-31-6-6-11-11-18-14-10-4-19-4-25 0-6 5-7 12-7 17 5 90 31 218 88 307 3 5 5 6 6 7 2-1 8-6 14-21 9-20 25-64 27-96a14 14 0 0 1 18-12c23 7 33 18 40 29 3 4 6 8 6 145 0 31-1 65-1 92 0 13 0 22 0 28 2 0 5 0 8 0s5 0 7 0z m298-576c0-11-5-26-15-26h-574c-11 0-25 15-25 26v391c0 30 38 63 105 93a754 754 0 0 0 112 37 14 14 0 0 1 10 9l20 58a135 135 0 0 1 26-9c2-47 2-231-1-255a36 36 0 0 0-9-9c-6 35-21 73-27 86-10 23-22 36-37 37-8 1-20-2-31-19-75-118-90-275-92-320-1-17 6-32 18-41 14-10 33-11 51-3 13 5 21 13 28 20 10 11 20 21 50 23 8 0 14 4 20 10 21 24 35 93 35 132 13 7 21 9 31 9 9 0 18-3 30-9 0-39 14-108 35-132 6-6 13-10 20-10 31-2 40-12 50-23 7-7 15-15 28-20a62 62 0 0 1 24-5 47 47 0 0 1 27 8c13 9 19 24 18 41-2 45-16 202-92 320-11 17-23 20-31 19-15-1-27-14-37-37-6-13-20-51-27-86a36 36 0 0 0-9 9c-3 23-2 183-1 237 0 7 0 14 0 18a134 134 0 0 1 24 8l18-57a14 14 0 0 1 9-9c13-4 28-9 43-13 78-24 176-54 176-117z" horiz-adv-x="1000" />

<glyph glyph-name="machine" unicode="&#xe835;" d="M797 356v49a18 18 0 0 1-18 17h-64a18 18 0 0 1-18-17v-49a18 18 0 0 1 18-18h64a18 18 0 0 1 18 18z m-27 10h-45v29h45z m79 445h-693c-53 0-95-41-95-91v-574a97 97 0 0 1 95-95h186l-14-57h-10a22 22 0 0 1-21-21v-66a22 22 0 0 1 21-22h364a22 22 0 0 1 21 22v66a22 22 0 0 1-21 21h-5l-14 57h186c50 0 91 43 91 95v574a90 90 0 0 1-91 91z m-227-595a178 178 0 1 1-239 0l-34-133a323 323 0 0 0-169 284c0 178 144 323 322 323s323-145 323-323a323 323 0 0 0-170-284z m-218 87l-14-56a151 151 0 1 0 224 0l-13 56a14 14 0 0 1-14 10h-170a14 14 0 0 1-13-10z m272-391h-352v55h352z m-320 82l72 292h149l72-292z m556 152c0-37-28-67-63-67h-149a350 350 0 0 1 152 288c0 194-157 351-350 351s-350-158-350-351a350 350 0 0 1 152-288h-148c-36 0-68 31-68 67v574c0 35 30 64 68 64h693c36 0 63-28 63-64z" horiz-adv-x="1000" />

<glyph glyph-name="male" unicode="&#xe836;" d="M591 324a234 234 0 0 1 61-8 229 229 0 0 1 74 12l68-119-102 25a18 18 0 0 1-20-26l28-47a18 18 0 0 1 11-9l179-43a14 14 0 0 1 16 9l55 177a18 18 0 0 1-1 14l-28 48a18 18 0 0 1-32-3l-31-100-67 118a232 232 0 1 1-211-48z m270-111a14 14 0 0 1 25 3l34 108 14-25-50-161-163 40-14 24 111-27a14 14 0 0 1 15 20l-82 144c6 2 11 5 17 8q6 4 12 8z m-407 388a205 205 0 1 0 20-155 204 204 0 0 0-20 155z m152-223a177 177 0 0 1 46-6 177 177 0 1 1-46 6z m-29 299a149 149 0 1 0-54-203 148 148 0 0 0 54 203z m-371-613a175 175 0 0 1 107-83 177 177 0 0 1 46-6 176 176 0 1 1-153 89z m78 217a149 149 0 1 0-54-204 148 148 0 0 0 54 204z m-218 82a18 18 0 0 1 24-6l77 44 41-72a232 232 0 1 1 76 43l-41 72 77 44a18 18 0 0 1 7 24l-27 45a18 18 0 0 1-23 7l-77-44-44 77a18 18 0 0 1-24 7l-46-26a18 18 0 0 1-6-24l44-77-77-44a18 18 0 0 1-7-24z m292-6a205 205 0 1 0-102-28 205 205 0 0 0 102 28z m-212 101a18 18 0 0 1 6 24l-44 77 29 16 44-77a18 18 0 0 1 24-6l77 43 16-28-77-44a18 18 0 0 1-6-24l44-78q-8-4-16-8-7-4-13-8l-44 78a18 18 0 0 1-24 6l-77-44-16 29z" horiz-adv-x="1000" />

<glyph glyph-name="medical-1" unicode="&#xe837;" d="M287 278h137v-141a22 22 0 0 1 21-21h106a22 22 0 0 1 21 21v141h137a22 22 0 0 1 22 21v104a22 22 0 0 1-22 21h-137v135a22 22 0 0 1-21 22h-106a22 22 0 0 1-21-22v-135h-137a22 22 0 0 1-21-21v-104a22 22 0 0 1 21-21z m6 119h137a22 22 0 0 1 21 21v135h94v-135a22 22 0 0 1 21-21h137v-92h-137a22 22 0 0 1-21-21v-141h-94v141a22 22 0 0 1-21 21h-137z m670 308a108 108 0 0 1-108 108h-710a108 108 0 0 1-108-108v-710a108 108 0 0 1 108-108h710a108 108 0 0 1 108 108z m-27-710a81 81 0 0 0-81-81h-710a81 81 0 0 0-80 81v710a81 81 0 0 0 80 81h710a81 81 0 0 0 81-81z m-701-18h524a108 108 0 0 1 108 108v524a108 108 0 0 1-108 108h-524a108 108 0 0 1-108-108v-524a108 108 0 0 1 108-108z m-81 632a81 81 0 0 0 81 81h524a81 81 0 0 0 81-81v-524a81 81 0 0 0-81-81h-524a81 81 0 0 0-81 81z" horiz-adv-x="1000" />

<glyph glyph-name="medical-2" unicode="&#xe838;" d="M825 163h-61v60a17 17 0 0 1-17 18h-55a18 18 0 0 1-18-18v-60h-62a18 18 0 0 1-18-18v-55a18 18 0 0 1 18-17h62v-63a18 18 0 0 1 18-17h55a17 17 0 0 1 17 17v63h61a17 17 0 0 1 17 17v55a17 17 0 0 1-17 18z m-10-63h-61a18 18 0 0 1-18-18v-62h-35v62a17 17 0 0 1-17 18h-63v35h63a17 17 0 0 1 17 18v60h35v-60a18 18 0 0 1 18-18h61z m-93 256a234 234 0 0 1-192-101q-5 2-10 3l-14 38c41 31 53 79 56 102 27 7 53 40 63 83 5 23-3 45-20 54a34 34 0 0 1-16 3c1 7 2 15 3 26 2 23 4 47 4 53 0 4 0 9 0 14 1 37 2 84-40 125h0c-37 38-89 58-143 57-55-2-105-25-140-64q-1-1-3-3c-21-23-49-55-47-136 0-8 8-45 16-72a34 34 0 0 1-13-5c-17-9-25-30-19-52 10-43 35-76 63-83 3-23 15-70 55-101l-18-36c-12-4-27-8-41-12-94-26-223-62-223-180v-122c0-29 16-60 43-60h637c0 0 0 0 1 0a234 234 0 0 1-2 469z m-432 372q2 2 4 3c29 34 73 53 119 55 47 1 92-17 124-49 33-33 32-72 32-106 0-5 0-9 0-14 0-3-1-9-1-16-7 24-16 48-29 62l-1 2a14 14 0 0 1-25-1c-22-48-43-46-80-43-4 0-8 1-12 1-14 1-19-7-21-10-4-11 2-22 13-35-36 4-45 31-53 54-6 17-12 36-31 36a64 64 0 0 1-48-21c-14-15-22-37-27-58a173 173 0 0 0-4 22c-1 71 21 96 40 118z m6-317a14 14 0 0 1-14 13c0 0 0 0 0 0-20 0-42 32-49 63-3 12 1 20 6 22 5 3 10-2 12-4a14 14 0 0 1 24 8 14 14 0 0 1 2 8c-2 21 0 81 24 106a37 37 0 0 0 26 12c2-3 5-11 7-17 10-29 29-83 113-71a14 14 0 0 1 7 23 248 248 0 0 0-19 20c32-3 65-4 92 38 17-32 26-96 28-121a14 14 0 0 1 14-13c0 0 1 0 1 1a14 14 0 0 1 12 8c2 2 6 5 10 3 5-2 9-11 6-23-7-31-28-63-48-63l-1 0a14 14 0 0 1-7-2 14 14 0 0 1-6-12c-1-11-6-68-53-97 0 0 0 0 0 0-18-11-41-17-67-17-27 0-49 6-67 17-46 29-52 86-53 98z m33-167l19 39c20-10 42-14 68-14 25 0 47 4 66 13l14-39a14 14 0 0 1 9-8q5-2 10-4a233 233 0 0 1-16-39c-13-15-39-38-83-38a106 106 0 0 0-79 34c-15 16-23 33-26 46 4 1 7 2 10 3a14 14 0 0 1 8 7z m-259-297v122c0 97 113 128 203 154 4 1 8 2 12 3 10-42 54-100 131-100a134 134 0 0 1 74 22 234 234 0 0 1 123-234h-527c-8 0-16 18-16 33z m652-33a207 207 0 1 0 207 207 207 207 0 0 0-207-207z" horiz-adv-x="1000" />

<glyph glyph-name="medical-care" unicode="&#xe839;" d="M453 145h88a22 22 0 0 1 22 21v118h113a22 22 0 0 1 21 21v86a22 22 0 0 1-21 22h-113v113a22 22 0 0 1-22 21h-88a22 22 0 0 1-21-21v-113h-116a22 22 0 0 1-21-22v-86a22 22 0 0 1 21-21h116v-118a22 22 0 0 1 21-21z m-131 166v74h116a22 22 0 0 1 21 22v113h76v-113a22 22 0 0 1 22-22h113v-74h-113a22 22 0 0 1-22-21v-118h-76v118a22 22 0 0 1-21 21z m-117-240a14 14 0 1 1 20 19 377 377 0 0 0 410 614l-41-88a14 14 0 0 1 17-18l138 50a14 14 0 0 1 9 17l-51 139a14 14 0 0 1-25 1l-36-77a404 404 0 0 1-441-657z m488 693l34-95-94-34z m102-135a14 14 0 1 1-20-19 377 377 0 0 0-410-614l41 88a14 14 0 0 1-17 18l-138-50a14 14 0 0 1-9-17l51-139a14 14 0 0 1 12-9c0 0 0 0 0 0a14 14 0 0 1 13 8l36 77a404 404 0 0 1 441 657z m-488-693l-34 95 94 34z" horiz-adv-x="1000" />

<glyph glyph-name="medical" unicode="&#xe83a;" d="M500 733a219 219 0 1 1 219-219 219 219 0 0 1-219 219z m0-410a191 191 0 1 0 191 191 192 192 0 0 0-191-191z m0 490c-171 0-309-139-309-309a356 356 0 0 1 16-106c10-33 24-63 37-91 39-83 173-285 228-368a33 33 0 0 1 28-15h0a33 33 0 0 1 28 15c55 83 189 284 228 368 29 61 53 119 53 197 0 170-138 309-309 309z m231-495c-39-84-183-300-226-365a6 6 0 0 0-10 0c-43 65-187 282-226 365-26 55-51 114-51 186 0 155 127 282 282 282s282-127 282-282c0-73-22-125-51-186z m-139 235h-53v53a22 22 0 0 1-21 21h-41a22 22 0 0 1-22-21v-53h-53a22 22 0 0 1-21-21v-41a22 22 0 0 1 21-22h53v-53a22 22 0 0 1 22-21h41a22 22 0 0 1 21 21v53h53a22 22 0 0 1 21 22v41a22 22 0 0 1-21 21z m-6-56h-53a22 22 0 0 1-21-22v-53h-30v53a22 22 0 0 1-21 22h-53v29h53a22 22 0 0 1 21 21v53h30v-53a22 22 0 0 1 21-21h53z" horiz-adv-x="1000" />

<glyph glyph-name="microscope" unicode="&#xe83b;" d="M270 482a297 297 0 0 1-79-203c0-167 126-298 288-298h10l-26-76a14 14 0 0 1 13-18h320a14 14 0 0 1 11 6 14 14 0 0 1 2 12l-27 76h11a13 13 0 0 1 14 13v39a14 14 0 0 1-14 14h-82v53h37a13 13 0 0 1 14 13v49a14 14 0 0 1-14 14h-232a14 14 0 0 1-14-14v-49a13 13 0 0 1 14-13h37v-53h-74c-61 0-117 24-159 68-40 43-63 101-63 164a232 232 0 0 0 215 231l54-139a14 14 0 0 1 18-7l2 1 5-12a38 38 0 0 1 24-22c0 0 0 0 0 0a14 14 0 0 1 13-24l55 21a14 14 0 0 1-6 27c0 0 0 0 0 0a38 38 0 0 1 3 33l-4 11 2 1a14 14 0 0 1 8 18l-101 261 18 7a14 14 0 0 1 8 18l-17 44a14 14 0 0 1-18 8l-17-7 5 49a14 14 0 0 1-19 15l-140-55a14 14 0 0 1-4-23l37-32-18-7a14 14 0 0 1-7-18l17-44a14 14 0 0 1 17-8l18 7 23-58a297 297 0 0 1-178-93z m507-568h-282l23 67h235z m-248 235h205v-22h-205z m51-49h104v-53h-104z m-277 360a258 258 0 0 1-73-181c0-70 25-135 71-183 46-49 110-76 178-76h300v-12h-300c-71 0-138 28-186 79-49 51-75 119-75 192a271 271 0 0 0 240 269l4-11a257 257 0 0 1-159-77z m312-82a11 11 0 0 0-2-9 24 24 0 0 0-12-10l-3-1a24 24 0 0 0-15-1 11 11 0 0 0-7 6l-4 11 38 15z m-219 363l98 38-4-41-64-24z m7-66l105 41 0 0 25 10 7-19-17-7c0 0 0 0-1 0s0 0 0 0l-112-43z m117-5l96-249-67-26 0 0c0 0 0 0 0 0l-2-1-96 249z" horiz-adv-x="1000" />

<glyph glyph-name="mobile" unicode="&#xe83c;" d="M500 293a174 174 0 1 1-174 174 174 174 0 0 1 174-174z m0 321a147 147 0 1 0-146-147 147 147 0 0 0 146 147z m-45-194v-47a22 22 0 0 1 22-21h35a22 22 0 0 1 21 21v47h47a22 22 0 0 1 22 22v35a22 22 0 0 1-22 21h-47v47a22 22 0 0 1-21 22h-35a22 22 0 0 1-22-22v-47h-47a22 22 0 0 1-21-21v-35a22 22 0 0 1 21-22z m-41 51h47a22 22 0 0 1 21 22v47h24v-47a22 22 0 0 1 21-22h47v-23h-47a22 22 0 0 1-21-22v-47h-24v47a22 22 0 0 1-21 22h-47z m126-465h-80c-15 0-28-12-28-27v-17c0-16 13-28 28-28h80c15 0 28 12 28 28v17c0 15-13 27-28 27z m1-44c0 0-1-1-1-1h-80c0 0-1 1-1 1v17c0 0 1 0 1 0h80c0 0 1 0 1 0z m182 742a14 14 0 0 1-14 13h-418a14 14 0 0 1-14-13v-666a14 14 0 0 1 14-14h418a14 14 0 0 1 14 14z m-28-653h-390v639h390z m84 434v238a90 90 0 0 1-90 90h-378a89 89 0 0 1-88-90v-105a17 17 0 0 1-16-17v-47a17 17 0 0 1 16-17v-9a17 17 0 0 1-16-18v-47a17 17 0 0 1 16-17v-469a89 89 0 0 1 88-90h378a90 90 0 0 1 90 90v413a18 18 0 0 1 14 17v61a18 18 0 0 1-14 17z m-13-69h-1a13 13 0 0 1-13-13v-426a63 63 0 0 0-63-63h-378a62 62 0 0 0-61 63v483c0 7-7 13-15 13h-1v27h1c8 0 15 7 15 14v36a15 15 0 0 1-15 15h-1v25h1a15 15 0 0 1 15 15v118a62 62 0 0 0 61 63h378a63 63 0 0 0 63-63v-252a14 14 0 0 1 13-14h1z m-127-169h-278a14 14 0 0 1 0-28h278a14 14 0 0 1 0 28z m0-61h-278a14 14 0 0 1 0-27h278a14 14 0 0 1 0 27z m0-61h-278a14 14 0 0 1 0-27h278a14 14 0 0 1 0 27z" horiz-adv-x="1000" />

<glyph glyph-name="negative" unicode="&#xe83d;" d="M797 166h-230a14 14 0 0 1 0-27h230a14 14 0 0 1 0 27z m-115 223a236 236 0 0 1-25-1c-2 5-5 10-8 16-48 102-237 381-245 393a14 14 0 0 1-11 6h0a14 14 0 0 1-11-6c-8-12-197-292-245-393-26-55-53-120-53-197 0-170 138-309 309-309a307 307 0 0 1 174 53 234 234 0 1 1 115 438z m-289-464c-155 0-282 127-282 282 0 72 25 131 51 185 40 86 189 309 231 372 42-63 191-286 232-372 1-3 3-6 4-9a234 234 0 0 1-87-416 280 280 0 0 0-149-42z m289 23a207 207 0 1 0 207 207 207 207 0 0 0-207-207z" horiz-adv-x="1000" />

<glyph glyph-name="normal" unicode="&#xe83e;" d="M898 357c24 57 36 112 36 165 0 136-84 280-239 280a239 239 0 0 1-224-158 239 239 0 0 1-225 159c-79 0-143-33-185-93-34-50-53-117-53-188 0-76 24-156 72-238 38-64 90-131 156-197 112-113 226-187 227-187a14 14 0 0 1 15 0c3 1 55 36 125 94a234 234 0 1 1 295 363z m-427-429a1558 1558 0 0 0-215 178c-65 65-116 129-152 192-46 78-69 153-69 224 0 117 55 253 211 253a211 211 0 0 0 211-211 14 14 0 0 1 27 0 211 211 0 0 0 211 211c82 0 131-44 158-81 34-47 53-110 53-172 0-48-10-98-32-150a234 234 0 0 1-291-359c-52-44-96-74-112-85z m287 34a207 207 0 1 0 207 207 207 207 0 0 0-207-207z m134 303l-212-161-53 82a14 14 0 0 1-23-15l61-94a14 14 0 0 1 20-4l223 171a14 14 0 1 1-16 21z" horiz-adv-x="1000" />

<glyph glyph-name="nurse-1" unicode="&#xe83f;" d="M598 51a14 14 0 0 1-14-13v-39a14 14 0 0 1 14-14h45v-43a14 14 0 0 1 13-14h41a14 14 0 0 1 14 14v43h41a14 14 0 0 1 14 14v39a14 14 0 0 1-14 13h-41v41a14 14 0 0 1-14 14h-41a14 14 0 0 1-13-14v-41z m58-27a14 14 0 0 1 14 14v41h14v-41a14 14 0 0 1 13-14h41v-12h-41a14 14 0 0 1-13-13v-44h-14v44a14 14 0 0 1-14 13h-45v12z m-291 218c-91-25-215-59-215-174v-122c0-26 34-59 62-59h583c27 0 55 34 55 59v122c0 53-22 93-68 123-37 25-85 38-128 51-13 4-26 7-38 11l-14 37c40 30 51 77 54 100 27 7 52 39 62 81 6 23-2 44-20 53a33 33 0 0 1-15 4c1 6 2 14 3 24 2 23 4 46 4 52a160 160 0 0 1-5 39 14 14 0 0 1 3 8v110a14 14 0 0 1-7 11c-2 2-63 41-177 41-105 0-169-39-171-41a14 14 0 0 1-7-11v-111a14 14 0 0 1 3-9c-5-13-5-26-5-38 0-2 0-4 0-6 0-8 8-43 15-70a34 34 0 0 1-12-4c-17-9-24-30-19-52 10-42 35-74 62-81 3-23 15-69 54-99l-17-37c-13-4-27-8-42-12z m148 21c25 0 46 4 65 13l13-35a14 14 0 0 1 9-11c5-2 9-3 14-5-3-12-11-28-24-42-14-14-39-32-77-32-62 0-94 49-101 76q3 1 6 2a14 14 0 0 1 11 8l18 39c19-8 41-13 66-13z m254-95c38-25 55-57 55-100v-122c0-12-16-32-27-32h-583c-12 0-34 21-34 32v122c0 42 19 73 62 98 38 24 88 37 132 50q7 2 14 4c10-41 53-96 127-96 48 0 79 22 97 40 15 16 26 35 30 53l7-2c40-11 86-25 120-47z m-105 436c0-2 0-6 0-12a229 229 0 0 1-14 38c4 1 8 2 11 3a131 131 0 0 0 3-29z m-152-38c-30 4-40 25-48 46 14-1 28-2 42-2a528 528 0 0 1 82 7c-16-12-35-10-58-8-4 0-7 0-10 1-14 0-19-7-20-11-3-6-3-15 12-33z m-156 187c17 9 71 32 150 32 85 0 139-23 156-32v-91c-24-7-92-25-156-25a434 434 0 0 0-56 5 14 14 0 0 1-9 1c-10 1-20 3-29 5a14 14 0 0 1-7 1c-21 4-39 9-49 11z m1-177a154 154 0 0 0-3 21c0 2 0 4 0 6-1 11-1 21 3 29 6-2 13-3 21-5-10-15-17-33-21-51z m41-174a14 14 0 0 1-14 13c0 0 0 0 0 0-16 0-38 25-47 62-3 12 1 19 5 22 5 2 10-2 12-5 0 0 0 0 0 0 1 0 1 0 1 0s0-1 0-1c0 0 1 0 1 0 0 0 0 0 0 0 1-1 1-1 1-1 0 0 0 0 1 0 0 0 0 0 0 0 0-1 0-1 1-1 0 0 0 0 0 0 0 0 1 0 1 0 0 0 0 0 0 0 1 0 1 0 1-1 0 0 0 0 1 0 0 0 0 0 0 0 1 0 1 0 1 0 0 0 1 0 1 0 0 0 0 0 0 0 0 0 0 1 0 1h0a12 12 0 0 1 3 0s0 0 0 0c1 0 1 0 1 0 1 0 1 0 1 0 0 0 0 0 1 0 0 0 0 0 0 1 0 0 1 0 1 0 0 0 0 0 0 0 0 0 1 1 1 1 0 0 0 0 0 0 1 0 1 0 1 0 0 0 0 0 0 1 0 0 0 0 0 0 0 0 1 0 1 0 0 0 0 1 0 1 0 0 1 0 1 0l0 1c0 0 0 0 1 0 0 1 0 1 0 1 0 0 0 0 0 1 0 0 0 0 0 0 1 0 1 0 1 1 0 0 0 0 0 0 0 0 0 1 0 1 0 0 0 0 0 0 0 1 0 1 0 1 0 0 1 1 1 1 0 0 0 0 0 0 0 1 0 1 0 1 0 0 0 1 0 1 0 0 0 0 0 0a314 314 0 0 0 4 54c5 30 14 52 27 62 8-1 16-3 25-4 0-1 1-3 1-4 9-27 26-75 89-75a151 151 0 0 1 22 2 14 14 0 0 1 7 24 244 244 0 0 0-18 18c31-2 64-2 91 37 16-33 24-93 27-116 0 0 0 0 0 0 0 0 0 0 0-1 0 0 0 0 0 0s0-1 0-1 0 0 0 0 0-1 0-1 1 0 1-1 0 0 0 0 0-1 0-1 0 0 1 0 0-1 0-1c0 0 0 0 0 0s0-1 1-1 0 0 0 0 0-1 0-1 1 0 1 0 0 0 0-1c0 0 0 0 1 0s0 0 0 0c0 0 0 0 0 0 1-1 1-1 1-1s0 0 0 0 1 0 1 0 0-1 1-1 0 0 0 0c0 0 1 0 1 0 0 0 0 0 0 0 1 0 1 0 1-1 0 0 0 0 1 0 0 0 0 0 0 0 1 0 1 0 1 0 0 0 0 0 1 0 0 0 0 0 0 0l0 0c0 0 1 0 1 0 0 0 0 0 0 0l1 0c0 0 0 0 0 0 0 0 0 0 1 0 0 0 0 0 0 0 1 1 1 1 1 1 0 0 0 0 1 0s0 0 0 0 1 0 1 0 0 1 1 1 0 0 0 0 0 0 1 0 0 1 0 1 1 0 1 0 0 0 0 1 1 0 1 0 0 0 0 0c0 1 0 1 1 1 2 3 7 7 11 5 5-3 8-11 6-23-9-37-32-62-48-62a14 14 0 0 1-14-13c0-11-6-67-51-95 0 0 0 0 0 0-18-11-40-17-66-17s-48 6-65 17c-45 29-51 84-52 95z" horiz-adv-x="1000" />

<glyph glyph-name="nurse" unicode="&#xe840;" d="M136-61a56 56 0 0 1 13-35c9-11 22-17 34-17h634c13 0 25 6 34 17a56 56 0 0 1 13 35 14 14 0 0 1-1 3c0 1-18 77-33 138-9 38-32 66-60 88-19 47-41 159-42 232-1 127-16 209-48 256v66a14 14 0 0 1-6 11c-3 2-64 41-178 41-105 0-169-39-171-41a14 14 0 0 1-7-11v-67c-39-47-62-87-51-238 7-93-29-210-41-248-2-4-3-7-3-9-26-24-44-51-53-81-16-53-33-134-33-137a14 14 0 0 1-1-3z m597 253c-12 8-25 14-36 19-40 18-88 30-111 36l-2 0-1 38c38 28 49 72 53 94a73 73 0 0 1 32 19 86 86 0 0 1 26 62c0 25-4 48-38 48a27 27 0 0 1-15-5c2 27 1 61-14 85 25 6 42 11 43 11a14 14 0 0 1 6 4c16-45 24-111 25-203 0-63 16-150 32-208z m-369 268c3-3 5-5 7-7a14 14 0 0 1 23 13c0 1-17 50-16 94 56-48 183-65 189-66a16 16 0 0 1 2 0 13 13 0 0 1 10 4 13 13 0 0 1 3 12c0 1-4 26 21 65 19-27 11-80 7-102 0-4-1-7-1-9-1-12 5-16 9-17 2-1 12-4 18 7 5 10 17 24 22 27 5 0 6-1 6-1 1-1 3-5 3-20a59 59 0 0 0-18-42c-8-8-18-13-26-13a14 14 0 0 1-13-13c-1-10-7-62-49-89-14-9-51-23-61-26-9 2-43 15-59 24a14 14 0 0 1-5 4c-41 27-45 81-45 87a14 14 0 0 1-14 13c0 0 0 0-1 0-16 0-46 23-47 55 0 7 2 13 6 17a12 12 0 0 0 8 4c5 0 17-16 21-21z m30 122c31-6 68-11 102-11a518 518 0 0 1 76 6c-12-22-16-41-17-54-45 8-126 27-161 59z m23-362c6 1 11 2 13 3 0 0 0 0 0 0s1 1 1 1c0 0 0 0 1 0 0 0 0 0 0 0 0 0 1 0 1 1l0 0c0 0 1 0 1 0l0 0a14 14 0 0 1 4 5c0 0 0 0 0 0s0 0 0 1 0 0 0 0 1 1 1 1 0 0 0 0c0 1 0 1 0 1 0 0 0 1 0 1 0 0 0 0 0 1 0 0 0 0 0 0l0 0 0 0 4 35c21-10 49-21 57-21 8 0 35 11 56 21l1-34c0 0 0 0 0 0 0 0 0 0 0-1 0 0 0 0 0 0 0 0 0-1 0-1s0 0 1-1c0 0 0 0 0 0 0 0 0-1 0-1 0 0 0 0 0 0 0-1 0-1 0-1 1 0 1 0 1 0 0-1 0-1 0-1 0 0 0 0 0-1 0 0 1 0 1 0 0 0 0-1 0-1s0 0 1 0 0-1 0-1 0 0 0 0c1 0 1 0 1-1 0 0 0 0 0 0s1 0 1 0 0-1 1-1 0 0 0 0c0 0 1 0 1 0 0 0 0-1 0-1 1 0 1 0 1 0 0 0 0 0 0 0s1 0 1 0l0 0c2-1 6-2 12-4 5-1 11-2 18-4a92 92 0 0 0-23-40c-13-14-37-30-74-30-59 0-89 44-95 70 4 1 9 3 12 4z m79 526c85 0 139-23 156-32v-91c-24-7-92-25-156-25-57 0-125 17-150 23v93c17 9 71 32 150 32z m-201-327c-9 113 3 158 24 191a14 14 0 0 1 9-12c1-1 11-3 26-7-6-28-3-60 2-85a31 31 0 0 1-13 2 39 39 0 0 1-28-12c-9-9-13-22-13-37 1-39 32-72 62-80 3-22 14-66 53-95l-4-37-3-1c-7-2-15-4-24-7 0 0 0 0-1 0-25-8-58-18-85-31a332 332 0 0 1-40-21c16 54 41 151 35 232z m-99-348c8 26 24 50 47 70a14 14 0 0 1 2 2q27 23 66 40a668 668 0 0 0 68 25c9-39 50-90 121-90 47 0 77 22 94 40 14 15 25 33 29 51a496 496 0 0 0 62-23c44-20 105-53 119-112 13-56 30-125 32-136 0-12-10-24-19-24h-634c-9 0-19 12-19 24 2 11 18 85 32 133z m394-82h39v-41a14 14 0 0 1 14-14h39a14 14 0 0 1 13 14v41h41a14 14 0 0 1 14 13v39a14 14 0 0 1-14 14h-41v39a14 14 0 0 1-13 14h-39a14 14 0 0 1-14-14v-39h-39a14 14 0 0 1-14-14v-39a14 14 0 0 1 14-13z m14 39h39a14 14 0 0 1 13 13v40h12v-40a14 14 0 0 1 14-13h41v-12h-41a14 14 0 0 1-14-14v-41h-12v41a14 14 0 0 1-13 14h-39z" horiz-adv-x="1000" />

<glyph glyph-name="ointment" unicode="&#xe841;" d="M345 233h32v-31a21 21 0 0 1 21-22h23c12 0 22 10 22 22v31h33c12 0 22 10 22 21v24c0 12-10 21-22 21h-33v32c0 11-10 21-22 21h-23a21 21 0 0 1-21-21v-32h-32a21 21 0 0 1-21-21v-24a21 21 0 0 1 21-21z m7 39h30c12 0 22 10 22 21v32h12v-32a21 21 0 0 1 21-21h34v-12h-34a21 21 0 0 1-21-21v-32h-12v32c0 12-10 21-22 21h-30z m518-35a18 18 0 0 1-19 13l-103-11a54 54 0 0 1-49 15l-98-16a14 14 0 0 1-3 0l-57-9-35 322v0l-10 101a54 54 0 0 1-26 42l-17 104a17 17 0 0 1-18 15h-47a18 18 0 0 1-17-15l-18-104a55 55 0 0 1-26-42l-11-101v0l-39-363-71-11a13 13 0 0 1-1 0l-46-4a44 44 0 0 1-40-56l53-197a45 45 0 0 1 24-30 43 43 0 0 1 18-4 48 48 0 0 1 20 5l42 19a13 13 0 0 1 1 1l370 143 0 0a14 14 0 0 1 3 1l93 36a54 54 0 0 1 35 38l94 41a18 18 0 0 1 10 21z m-339-131a19 19 0 0 0-4-16 17 17 0 0 0-13-6h-204a17 17 0 0 0-14 6 19 19 0 0 0-4 16l6 31h228z m-188 430h138l35-325 5-46h-219l1 9z m53 250h31l14-84h-59z m-42-137c0 0 0 0 0 1a27 27 0 0 0 26 24h63a27 27 0 0 0 26-24c0-1 0-1 0-1l9-86h-132z m-131-734a17 17 0 0 0-25 12l-52 197a17 17 0 0 0 15 22l33 3 59-220z m55 25l-57 212 53 8 0 0a14 14 0 0 1 0-3l-9-46a47 47 0 0 1 10-38 45 45 0 0 1 35-16h204a45 45 0 0 1 34 16 47 47 0 0 1 10 38l-8 47a14 14 0 0 1-1 2l-4 42 47 7 21-81 14-52z m456 177c0 0 0-1 0-1l-81-30-17 62-17 66 85 13c0 0 0 0 0 1a27 27 0 0 0 31-19l16-61a27 27 0 0 0-17-31z m43 41l-15 55 83 9 8-30z" horiz-adv-x="1000" />

<glyph glyph-name="operation-1" unicode="&#xe842;" d="M919 291h-667v41c0 12-9 22-21 22h-123c-11 0-22-10-22-22v-41h-5c-12 0-22-9-22-21v-31c0-12 10-22 22-22h282v-121h-96c-12 0-23-9-23-21v-72a59 59 0 1 1 73-57 57 57 0 0 1-45 57v19h455v-19a59 59 0 1 1 72-57 57 57 0 0 1-45 57v72c0 12-9 21-21 21h-98v121h284c12 0 21 10 21 22v31c0 12-9 21-21 21z m-806 36h112v-36h-112z m177-381a31 31 0 0 0-31-32 32 32 0 0 0-32 32 32 32 0 0 0 17 28v-17a14 14 0 0 1 28 0v17a30 30 0 0 0 18-28z m482 0a31 31 0 0 0-31-32 32 32 0 0 0-32 32 32 32 0 0 0 18 28v-17a14 14 0 0 1 27 0v17a30 30 0 0 0 18-28z m-45 103h-455v20h455z m-120 47h-216v121h216z m305 149h-826v19h826z m-412 568a14 14 0 0 1-14-14v-52h-30c-12 0-22-10-22-22v-40c-41-4-74-27-91-48-8-11-19-42-22-48a14 14 0 0 1 2-12 14 14 0 0 1 11-6h340a14 14 0 0 1 12 18c-2 6-14 37-22 48-17 21-53 44-98 48v40c0 12-8 22-20 22h-32v52a14 14 0 0 1-14 14z m143-193c2-3 7-12 11-22h-300c4 10 9 19 11 22 15 19 44 39 83 39h106c39 0 74-20 89-39z m-104 66h-78v33h78z" horiz-adv-x="1000" />

<glyph glyph-name="operation" unicode="&#xe843;" d="M424 16a14 14 0 0 1 14 14v62h10c27 0 50 15 60 28 5 6 10 20 12 26a14 14 0 0 1-13 19h-167a14 14 0 0 1-12-19c2-6 7-20 11-26 10-13 34-28 60-28h11v-48a358 358 0 0 0-345 359c0 193 154 352 346 359l0-76h-15c-32 0-60-17-72-33-5-7-12-24-14-31a14 14 0 0 1 13-18h206a14 14 0 0 1 13 18c-2 7-9 24-14 31-12 16-40 33-72 33h-18l0 90a14 14 0 0 1-13 13c-214 0-388-173-388-386a386 386 0 0 1 387-387z m-63 121c0 0 0 0 0 0h126c-1 0-1 0-1 0-5-7-20-17-38-17h-49c-17 0-32 10-38 17z m145 500c1-1 2-4 3-6h-166c1 2 2 5 3 6 8 10 28 22 50 22h60c22 0 42-12 50-22z m-158-271a14 14 0 0 1-14 13h-141a14 14 0 0 1-13-13v-49h-8a14 14 0 0 1-14-14v-47a14 14 0 0 1 14-13h449v-258h-57a14 14 0 0 1-13-14v-47a14 14 0 0 1 13-14h385a14 14 0 0 1 14 14v47a14 14 0 0 1-14 14h-56v258h56a14 14 0 0 1 14 13v47a14 14 0 0 1-14 14h-601z m-141-14h113v-35h-113z m729-414h-358v19h358z m-71 47h-217v258h217z m71 285h-750v20h750z" horiz-adv-x="1000" />

<glyph glyph-name="oxygen" unicode="&#xe844;" d="M121 620a14 14 0 0 1 14 13v16h33v-4a21 21 0 0 1 21-22h34v-23a93 93 0 0 1-65-90v-569c0-30 23-54 52-54h106c30 0 55 24 55 54v569a93 93 0 0 1-66 90v23h33a22 22 0 0 1 21 22v3c30-7 53-33 53-65v-442a94 94 0 1 1 188 0v183a66 66 0 0 0 66 67 94 94 0 0 1 93 81c21 5 38 27 38 53v10c16 2 37 7 55 18 26 16 41 40 41 68 0 32-22 48-41 63-3 2-6 4-9 7-9 6-19 28-29 46-18 37-37 74-66 76 0 0-1 0-1 0h-1q0 0-1 0c-29-2-48-39-66-76-10-18-20-40-29-46-3-3-6-5-9-7-19-15-41-31-41-63 0-28 15-52 42-68a139 139 0 0 1 57-19v-9c0-24 14-43 32-51a66 66 0 0 0-65-56 94 94 0 0 1-94-94v-183a66 66 0 1 0-132 0v442a94 94 0 0 1-81 93 22 22 0 0 1-21 18h-33v31l49 53a14 14 0 0 1 2 15 14 14 0 0 1-12 8h-161a14 14 0 0 1-10-23l50-53v-31h-34a22 22 0 0 1-21-18h-33v18a14 14 0 0 1-28 0v-61a14 14 0 0 1 14-13z m507 1c0 18 10 27 29 41 4 2 7 5 10 7 13 10 24 32 36 56 12 24 30 60 44 61 13-1 31-37 43-61 12-24 23-46 36-56 3-2 6-5 10-7 19-14 30-23 30-41s-10-34-29-45a114 114 0 0 0-45-14c-8 18-25 30-44 30-20 0-37-12-44-31a114 114 0 0 0-48 15c-19 11-28 26-28 45z m99-82c0 14 9 26 21 26s22-12 22-26v-14c0-15-10-27-22-27s-21 12-21 27z m-383-519h-82v295h82z m0 490v-168h-97a13 13 0 0 1-13-13v-322c0-8 6-14 13-14h97v-52c0-14-13-27-28-27h-106c-14 0-24 12-24 27v569c0 38 28 67 64 67h26c37 0 68-30 68-67z m-67 94s0 0-1 0h-26c0 0 0 0 0 0v19h27z m35 170l-27-29h-44l-27 29z m-62-57h27v-23h-27z m-55-51h137v-15h-137z" horiz-adv-x="1000" />

<glyph glyph-name="patient" unicode="&#xe845;" d="M549 444h41v-43a18 18 0 0 1 17-18h36a18 18 0 0 1 17 18v43h41a18 18 0 0 1 18 17v36a18 18 0 0 1-18 17h-41v39a18 18 0 0 1-17 18h-36a18 18 0 0 1-17-18v-39h-41a18 18 0 0 1-18-17v-36a18 18 0 0 1 18-17z m10 43h41a18 18 0 0 1 17 17v39h16v-39a18 18 0 0 1 17-17h41v-16h-41a18 18 0 0 1-17-17v-43h-16v43a18 18 0 0 1-17 17h-41z m135-600a87 87 0 0 1 69 33c15 20 24 46 24 73v600c0 57-38 97-93 97h-29l-3 7c0 0 0 1 0 1-13 30-34 47-62 47h-34a58 58 0 0 1-114 0h-34c-27 0-49-17-61-48l-3-7h-30a122 122 0 0 1-75-27c-23-19-36-44-36-70v-600c0-54 54-106 111-106z m-312 799c0 0 0 0 0 0 8 21 20 31 36 31h48a14 14 0 0 1 13 16 30 30 0 0 0 0 5 30 30 0 0 0 61 0 30 30 0 0 0-1-5 14 14 0 0 1 14-16h47c16 0 28-10 36-30l6-15 0 0 1-1 0 0 13-34h-294l14 36z m-142-693v600c0 41 45 70 84 70h18l-9-24a22 22 0 0 1 20-29h312a22 22 0 0 1 20 29l-9 24h18c40 0 66-28 66-70v-600c0-51-34-79-66-79h-370c-42 0-84 40-84 79z m45 240h322a14 14 0 0 1 0 27h-322a14 14 0 0 1 0-27z m446-223a14 14 0 0 1-14 14h-432a14 14 0 0 1 0-28h432a14 14 0 0 1 14 14z m-446 143h213a14 14 0 0 1 0 27h-213a14 14 0 0 1 0-27z m0 160h127a14 14 0 0 1 0 27h-127a14 14 0 0 1 0-27z m0-236h280a14 14 0 0 1 0 27h-280a14 14 0 0 1 0-27z" horiz-adv-x="1000" />

<glyph glyph-name="positive" unicode="&#xe846;" d="M682 389a236 236 0 0 1-25-1c-2 5-5 10-8 16-48 102-237 381-245 393a14 14 0 0 1-11 6h0a14 14 0 0 1-11-6c-8-12-197-292-245-393-26-55-53-120-53-197 0-170 138-309 309-309a307 307 0 0 1 174 53 234 234 0 1 1 115 438z m-289-464c-155 0-282 127-282 282 0 72 25 131 51 185 40 86 189 309 231 372 42-63 191-286 232-372 1-3 3-6 4-9a234 234 0 0 1-87-416 280 280 0 0 0-149-42z m289 23a207 207 0 1 0 207 207 207 207 0 0 0-207-207z m115 218h-104v104a14 14 0 0 1-27 0v-104h-99a14 14 0 0 1 0-27h99v-99a14 14 0 0 1 27 0v99h104a14 14 0 0 1 0 27z" horiz-adv-x="1000" />

<glyph glyph-name="records" unicode="&#xe847;" d="M454 567h58v-61c0-9 9-17 18-17h49c10 0 17 8 17 17v61h55c10 0 17 8 17 17v47c0 10-7 18-17 18h-55v55c0 9-7 17-17 17h-49c-9 0-18-8-18-17v-55h-58c-10 0-18-8-18-18v-47c0-9 8-17 18-17z m9 55h60c9 0 16 7 16 17v55h29v-55c0-10 9-17 19-17h54v-28h-54c-10 0-19-8-19-17v-61h-29v61c0 9-7 17-16 17h-60z m296 101h0a92 92 0 0 1-92 90h-368a14 14 0 0 1-9-4l-137-123a14 14 0 0 1-5-10v-607c0-51 43-92 93-92h2a92 92 0 0 1 92-90h424a91 91 0 0 1 91 92v652a91 91 0 0 1-91 92z m-474 46v-60c0-14-10-25-24-25h-68z m-44-765c-35 0-65 29-65 65v588h85c29 0 52 23 52 52v77h354c36 0 64-29 64-65v-652c0-36-28-65-64-65z m581-25c0-36-28-65-63-65h-424a65 65 0 0 0-64 63h396a91 91 0 0 1 91 92v627c37 0 64-29 64-65z m-569 480h137a14 14 0 0 1 0 28h-137a14 14 0 0 1 0-28z m0-95h207a14 14 0 0 1 0 27h-207a14 14 0 0 1 0-27z m0-96h207a14 14 0 0 1 0 27h-207a14 14 0 0 1 0-27z m0-96h326a14 14 0 0 1 0 28h-326a14 14 0 0 1 0-28z m424-82a14 14 0 0 1-14 14h-410a14 14 0 0 1 0-27h410a14 14 0 0 1 14 13z" horiz-adv-x="1000" />

<glyph glyph-name="recovered" unicode="&#xe848;" d="M790 278a71 71 0 0 1-57-29 71 71 0 0 1-57 29c-24 0-43-10-56-28-10-14-15-34-15-54 0-88 116-164 120-167a14 14 0 0 1 15 0c5 3 121 80 121 167 0 40-25 82-71 82z m-57-221c-25 18-101 77-101 139 0 9 2 55 44 55a44 44 0 0 0 43-44 14 14 0 1 1 28 0 44 44 0 0 0 43 44c32 0 44-34 44-55 0-61-77-121-101-139z m0 326a231 231 0 0 1-207-130c-2 1-4 2-6 2l-17 39c40 31 52 79 55 102 27 7 53 40 63 83 5 23-3 45-20 54a34 34 0 0 1-16 4c1 7 2 15 3 25 2 24 4 48 4 54 0 26-9 64-33 96-41 54-105 65-151 65-46 0-109-11-152-60-34-40-42-87-38-110 0-1 1-5 2-11a14 14 0 0 1 0-2c0 0 0 0 0-1 3-14 8-38 14-57a35 35 0 0 1-14-4c-17-9-24-30-19-53 10-43 36-76 63-83 4-23 15-69 54-100l-18-40c-13-4-28-8-43-12-93-26-220-61-220-178v-85c0-28 37-59 63-59h623c4 0 7 0 10 0a230 230 0 1 1 0 461z m-457 316c29 33 74 51 132 51 59 0 102-19 129-54a135 135 0 0 0 22-43 182 182 0 0 1-43 34 14 14 0 0 1-19-8c0-1-17-56-124-104-39-18-71-21-95-10a62 62 0 0 0-31 36l-1 0c0 4-1 8-1 10-5 33 19 73 31 88z m15-290a14 14 0 0 1-14 13l-1 0c-16 0-39 25-48 63-3 12 0 20 5 23 5 3 11-2 13-5a14 14 0 0 1 21 18c-1 3-4 11-7 22 2-1 4-2 6-3a97 97 0 0 1 42-9c23 0 48 6 77 19 84 38 118 82 131 105a161 161 0 0 0 17-15c20-19 29-39 29-59-2-24-5-54-8-61a14 14 0 0 1 22-16c3 3 8 7 12 5 6-3 9-12 6-24-9-38-32-64-49-63a14 14 0 0 1-14-14c0-11-6-68-53-98-18-11-40-16-67-16-26 0-49 5-67 17-46 29-53 86-53 98z m31-170l19 42c20-10 44-15 70-15 26 0 48 5 68 14l18-41a14 14 0 0 1 9-8c3-1 6-2 9-3q-3-9-5-19c-15-27-50-58-99-58-64 0-97 50-104 79 2 0 5 1 7 2a14 14 0 0 1 8 7z m-222-289c-13 0-35 20-35 31v85c0 43 20 75 63 101 40 24 91 38 136 50 6 2 12 4 17 5 10-42 54-99 130-99a138 138 0 0 1 92 35c0-2 0-4 0-6a230 230 0 0 1 121-202z m633-1l0 0a14 14 0 0 1-3 1h-6a203 203 0 1 0 9-1z" horiz-adv-x="1000" />

<glyph glyph-name="scan" unicode="&#xe849;" d="M352 189a312 312 0 0 1 142 34l24-24c8-8 19-12 32-12a61 61 0 0 1 7 0 67 67 0 0 1 22 6l217-217c-11-21-10-45 4-59l21-22a21 21 0 0 1 16-6h0a21 21 0 0 1 15 6l102 102a22 22 0 0 1 0 30l-22 22c-15 15-38 17-58 5l-216 217c10 20 8 44-8 60l-23 23c62 118 44 267-55 366h0c-122 122-319 122-441 0a311 311 0 0 1 221-531z m561-159l17-18-93-94-18 18c-7 7-2 25 10 37l51 51c11 12 25 14 33 6z m-99-33l-213 213 39 40 213-213z m-184 315c9-8 10-24-2-36l-51-51a39 39 0 0 0-23-11c-7-1-14 1-17 4l-19 19a312 312 0 0 1 94 93z m-479 389a284 284 0 0 0 401 0c111-111 111-291 0-402s-291-111-401 0a284 284 0 0 0 0 402z m200-435a233 233 0 0 1 165 399h0a234 234 0 1 1-165-399z m-146 379a206 206 0 0 0 292 0h0a206 206 0 1 0-292 0z" horiz-adv-x="1000" />

<glyph glyph-name="scissor-1" unicode="&#xe84a;" d="M71 687a14 14 0 0 1 3-5l195-163 217-329-6-99q-4-4-8-8a115 115 0 1 1 120 27l-2 79c0 0 0 0 0 0 0 0 0 0 0 0a14 14 0 0 1 0 2c0 0 0 0 0 0a14 14 0 0 1-1 2c0 0 0 0 0 0a13 13 0 0 1-1 2c0 0 0 0 0 0a13 13 0 0 1-1 1c0 0 0 0 0 0l-151 216 219-145c0 0 1 0 1 0a14 14 0 0 1 1-1l0 0a13 13 0 0 1 2-1l0 0a14 14 0 0 1 2-1l0 0c0 0 1 0 1 0l79-4a115 115 0 1 1 27 120c-2-3-5-6-7-9l-100-5-263 153-254 278a14 14 0 0 1-8 4l-55 12a14 14 0 0 1-14-23l50-58-59 45a14 14 0 0 1-21-17z m570-685a88 88 0 1 0-88 87 88 88 0 0 0 20-2 14 14 0 0 1 4-1 87 87 0 0 0 64-84z m-133 106l4 71 51-3 1-60a115 115 0 0 1-56-8z m-110 362l2 16 245-142 2-39z m452-84a88 88 0 1 0-84-112 14 14 0 0 1-2 5 88 88 0 0 0 86 107z m-106-43a115 115 0 0 1-9-55l-59 3-4 48z m-617 432l248-271-5-39c0 0 0 0 0 0 0 0 0-1 0-1 0 0 0 0 0 0s0-1 0-1 0-1 0-1 0 0 0 0 0-1 0-1c0 0 0 0 0-1 0 0 0 0 0 0 0-1 0-1 0-1s0 0 0-1 1 0 1 0 0-1 0-1 0 0 0 0 0-1 1-1c0 0 0 0 0 0 0-1 0-1 0-1l177-251-42 3-211 322 7 12a14 14 0 0 1-2 16l-83 97a14 14 0 0 1-2 3l-102 121z m70-137l64-76-167 139-10 21z m309-589a67 67 0 1 1 94 0 67 67 0 0 1-94 0z m75-75a39 39 0 1 0 0 56 39 39 0 0 0 0-56z m222 278a67 67 0 1 1 0 94 66 66 0 0 1 0-94z m19 75a39 39 0 1 0 0-56 39 39 0 0 0 0 56z" horiz-adv-x="1000" />

<glyph glyph-name="scissor" unicode="&#xe84b;" d="M730 408a144 144 0 0 1-18-22l-80-4-219 127-83 105a178 178 0 0 1 9 49 150 150 0 0 1-45 114c-25 25-53 37-83 36-59-3-103-54-105-57a14 14 0 0 1 19-19c2 1 63 45 118-10 33-34 9-81 3-90a14 14 0 0 1 1-18l35-58-66 33a14 14 0 0 1-15-2c0 0 0 0-1-1-9-5-56-29-90 4-54 54-11 115-9 118a14 14 0 0 1-20 18c-2-2-54-46-56-104-2-30 10-59 36-84a150 150 0 0 1 108-44c2 0 3 0 5 0a177 177 0 0 1 52 9l139-84 117-192-4-72a144 144 0 1 1 98 10l-2 61c0 0 0 0 0 0 0 0 0 0 0 1a14 14 0 0 1 0 1c0 0 0 0 0 0a14 14 0 0 1-1 2c0 0 0 0 0 0a14 14 0 0 1-1 2c0 0 0 0 0 0a14 14 0 0 1-1 1c0 0 0 1 0 1l-120 171 175-116c0 0 0 0 0 0a13 13 0 0 1 1-1l0 0a14 14 0 0 1 2 0l0 0a13 13 0 0 1 2-1c0 0 0 0 0 0 1 0 1 0 1 0l57-3a143 143 0 0 1 41-84h0a144 144 0 1 1 0 203z m-32-50a144 144 0 0 1-9-42l-43 3-1 19-2 17z m-508 424a84 84 0 0 0 22 4c22 0 43-9 63-28 48-48 38-106 31-130l-29 9c12 29 20 75-15 110-24 24-50 33-72 35z m-110-219c-20 19-29 40-28 63a84 84 0 0 0 4 21c2-22 11-47 35-71 35-35 81-28 110-15l8-30c-24-6-81-16-129 32z m157-30l-6 23 77-38 27-44z m387-585a116 116 0 1 0-83 199 118 118 0 0 0 19-1l0 0a116 116 0 0 0 64-198z m-83 226a145 145 0 0 1-35-4l3 50 10 0 28-2 1-44c-2 0-4 0-7 0z m-37 74l-117 192 0 0-100 165 20-5 82-105-4-32c0 0 0 0 0 0 0 0 0-1 0-1 0 0 0 0 0-1s0 0 0 0 0-1 0-1 0 0 0 0 0-1 0-1 0-1 0-1 0 0 0 0 0-1 0-1 0 0 1-1 0 0 0 0 0-1 0-1 0 0 0 0c0-1 1-1 1-1 0 0 0 0 0-1 0 0 0 0 0 0l146-207z m-91 220l1 9 202-117 1-19 1-9z m501-244a116 116 0 0 0-164 0h0a116 116 0 1 0 164 0z m-373-107a86 86 0 1 1 62-25 86 86 0 0 1-62 25z m42-128a59 59 0 1 0 0 84 59 59 0 0 0 0-84z m249 404a86 86 0 1 1 62-25 86 86 0 0 1-62 25z m42-128a59 59 0 1 0 0 83 59 59 0 0 0 0-83z" horiz-adv-x="1000" />

</font>
</defs>
</svg>
